Торрент файл
скачать торрент магнет ссылка Добавлен: 08 янв 2012, 04:29
Размер: 4.15 ГБ
Сидеров: 5
Личеров: 5
Автор

СообщениеДобавлено: 08 янв 2012, 04:29 

Не в сети
Супермодератор
Аватара пользователя
Дата регистрации:
22 май 2010, 11:03
Возраст: 31
Спасибо: 7509 / 13
Сообщения: 49940
Акула (Оксана Почепа) - Кислотный DJ


Формат: DVD5, DVD Video, MPEG2, AC3
Песня: Кислотный DJ
Жанр: Pop
Продолжительность: 01:47:52
Год выпуска: 2011

Видео: 720х576 (PAL 4:3), 25 fps, MPEG-2, ~4501 kbps avg, 0.434 bit/pixel
Аудио: 48 kHz, AC-3 , 2 ch, 192.00 kbps avg

Доп. информация: В 2001 г. вышел дебютный альбом Акулы «Кислотный DJ». Акула стала суперпопулярна и приобрела армию поклонников не только на территории нашей страны, но и за рубежом. В 2003 г. вышел следующий альбом Акулы «Без любви».
В 2004 г. Оксана после гастрольного тура по городам США, осталась в Соединенных Штатах, где прожила год. Здесь Оксана познакомилась с западной и афро-американской музыкальной культурой, записала несколько новых произведений, которые войдут в её новый альбом. Но любовь к сцене и любимому зрителю вернула певицу в 2006 г. в Россию.


Клипы и выступления (01:20:37)
01 О. Почепа и М. Гребенщиков - Интервью
02 Такая любовь
03 Я убегаю
04 Звезда
05 Утро без тебя
06 Кислотный DJ
07 Стаи птиц
08 Гол! Это наш футбол!
09 Intro
10 Мало [live]
11 Это музыка детства
12 Полюби
13 Кислотный DJ [live]
14 Стаи птиц [live]
15 Секс (И.Демьян-7Б)
16 Помоги мне (И.Демьян-7Б)
17 Неизвестный солдат (И.Демьян-7Б)
18 Я пополам тебя не поделю [live]
19 Утро без тебя [live]
20 Слова
21 Я держусь за тебя
Выступление Оксаны Почепа в Юрмиле 2008 (00:09:59)
Выступление на канале КЕКС 89,9 от 08.04.2011 (00:17:16)

Общее
Формат: MPEG-PS
Общий поток: 4788 Кбит/сек

Видео
Идентификатор: 224 (0xE0)
Формат: MPEG Video
Версия формата: Version 2
Профиль формата: Main@Main
Параметр BVOP формата: Да
Параметр матрицы формата: По умолчанию
Параметры GOP формата: M=3, N=15
Вид битрейта: Переменный
Битрейт: 4501 Кбит/сек
Номинальный битрейт: 9072 Кбит/сек
Ширина: 720 пикс.
Высота: 576 пикс.
Соотношение сторон: 4:3
Частота кадров: 25,000 кадр/сек
Стандарт вещания: PAL
Цветовое пространство: YUV
Подвыборка цветности: 4:2:0
Битовая глубина: 8 бит
Тип развёртки: Прогрессивная
Метод сжатия: С потерями
Бит/(Пиксели*Кадры): 0.434
Размер потока: 962 Мбайт (94%)

Аудио
Идентификатор: 128 (0x80)
Формат: AC-3
Формат/Информация: Audio Coding 3
Расширение режима: CM (complete main)
Вид битрейта: Постоянный
Битрейт: 192 Кбит/сек
Канал(ы): 2 канала(ов)
Расположение каналов: Front: L R
Частота: 48,0 КГц
Битовая глубина: 16 бит
Метод сжатия: С потерями
Размер потока: 41,1 Мбайт (4%)














Поделиться:




реклама партнёра


Вернуться к началу
 Профиль Отправить личное сообщение  
 
   Похожие торренты   Автор   Торрент   Размер 
В этой теме нет новых непрочитанных сообщений. Акула-Франкенштейн / Sharkenstein [ужасы, 2016] WEB-DLRip, Mvo

salma3

264 | 174

1.37 ГБ

В этой теме нет новых непрочитанных сообщений. Человек-акула / Hammerhead [ужасы, фантастика, 2005] DVDRip, Mvo [ТВ3]

salma3

28 | 3

1.46 ГБ

В этой теме нет новых непрочитанных сообщений. Акула-призрак / Ghost Shark [ужасы, фантастика, 2013] HDRip, Mvo

salma3

237 | 15

1.37 ГБ

В этой теме нет новых непрочитанных сообщений. Акула / Шарк / Shark [01-12 из 12] (Кубота Такаши) [Музыкальный, драма, 2014] HDTVRip, dvo

Dracon

8 | 3

2.92 ГБ

В этой теме нет новых непрочитанных сообщений. Акула-Робот / Roboshark [фантастика, боевик, триллер, 2015] WEB-DL 720p, Mvo [iTunes]

salma3

291 | 23

2.81 ГБ

В этой теме нет новых непрочитанных сообщений. Акула-призрак / Ghost Shark [ужасы, фантастика, 2013] BDRip 720p, Mvo

salma3

16 | 3

3.39 ГБ

В этой теме нет новых непрочитанных сообщений. Акула-призрак / Ghost Shark [ужасы, фантастика, 2013] BDRip 1080p, Dvo+Sub

salma3

98 | 17

5.58 ГБ


Начать новую тему Ответить на тему  [ 1 сообщение ] 




Для Мосгорсуда, Роскомнадзора и рекламодателей:: mosgorsud-torrent[собачка]yandex.ru