Торрент файл
скачать торрент магнет ссылка Добавлен: 08 янв 2012, 04:28
Размер: 4.36 ГБ
Сидеров: 2
Личеров: 11
Автор

СообщениеДобавлено: 08 янв 2012, 04:28 

Не в сети
Супермодератор
Аватара пользователя
Дата регистрации:
22 май 2010, 11:03
Возраст: 32
Спасибо: 7690 / 13
Сообщения: 49871
Kiss - Videography

Формат: DVD5, DVD Video, MPEG2, AC3
Песня: Videography
Жанр: Hard-rock
Продолжительность: 02:10:02
Год выпуска: 1974-2009

Видео: 720х576 (PAL 4:3), 25 fps, MPEG-2, ~2635 kbps avg, 0.254 bit/pixel
Аудио: 48 kHz, AC-3 , 2 ch, 256.00 kbps avg

Доп. информация: Kiss — американская рок-группа, получившая огромную известность в 1970—1980 годах, игравшая в жанрах глэм/шок/хард-рока и известная своим сценическим макияжем и концертами-шоу, сопровождаемыми различными пиротехническими эффектами. Была сформирована в Нью-Йорке в январе 1973 года.
Спасибо за предоставленный материал oleg-1937 . Перввоисточник находится .
1974 - Fire House
1976 - Beth
1976 - Hard Luck Women
1976 - I Want You
1979- Sure Know Something
1979 - I Was Made For Lovin' You
1980 - Shandi
1980 - She's So European
1980 - Talk To Me
1981 - A World Without Hero
1982 - I love It Loud
1983 - All Hell's Breaking Loose
1983 - Lick It Up
1984 - Heaven's On Fire
1984 - Thrills In The Night
1985 - Tears Are Falling
1985 - Uh! All Night
1985 - Who Wants To Be Lonely
1987 - Crazy Crazy Nights
1987 - Reason To Live
1987 - Turn On The Night
1988 - Let's Put The X In Sex
1988 - You Make Me Rock Hard
1989 - Forever
1989 - Hide Your Heart
1989 - Rise To It
1992 - Domino
1992 - Everytime I Look At You
1992 - God Gave Rock'n'roll To You II
1992 - I Just Wanna
1992 - Unholy
1996 - Shout It Out Loud
1998 - Psycho Circus
2009 - Modern Day Delilah

Общее
Формат: MPEG-PS
Общий поток: 2950 Кбит/сек

Видео
Идентификатор: 224 (0xE0)
Формат: MPEG Video
Версия формата: Version 2
Профиль формата: Main@Main
Параметр BVOP формата: Да
Параметр матрицы формата: По умолчанию
Вид битрейта: Переменный
Битрейт: 2635 Кбит/сек
Номинальный битрейт: 9641 Кбит/сек
Ширина: 720 пикс.
Высота: 576 пикс.
Соотношение сторон: 4:3
Частота кадров: 25,000 кадр/сек
Стандарт вещания: PAL
Цветовое пространство: YUV
Подвыборка цветности: 4:2:0
Битовая глубина: 8 бит
Тип развёртки: Чересстрочная
Порядок развёртки: Верхнее поле первое
Метод сжатия: С потерями
Бит/(Пиксели*Кадры): 0.254
Размер потока: 915 Мбайт (89%)

Аудио
Идентификатор: 128 (0x80)
Формат: AC-3
Формат/Информация: Audio Coding 3
Расширение режима: CM (complete main)
Вид битрейта: Постоянный
Битрейт: 256 Кбит/сек
Канал(ы): 2 канала(ов)
Расположение каналов: Front: L R
Частота: 48,0 КГц
Битовая глубина: 16 бит
Метод сжатия: С потерями
Размер потока: 88,9 Мбайт (9%)













Поделиться:




реклама партнёра


Вернуться к началу
 Профиль Отправить личное сообщение  
 
   Похожие торренты   Автор   Торрент   Размер 
В этой теме нет новых непрочитанных сообщений. Скуби-Ду и KISS: Тайна рок-н-ролла / Scooby-Doo! And Kiss: Rock and Roll Mystery (Спайк Брандт, Тони Червоне) [Мультфильм, семейный, 2015] DVDRip, dub [Чистый звук]

Dracon

7 | 0

1.37 ГБ

В этой теме нет новых непрочитанных сообщений. Красный райдинг 1974 / Red Riding 1974 [детектив, 2009] BDRip 720p, Dvo+Sub

salma3

83 | 9

4.04 ГБ

В этой теме нет новых непрочитанных сообщений. Kid Rock - First Kiss [Deluxe Edition] (Rock, Country, Southern Rock. 2015) MP3 320 kbps

Aleksandr.ru

26 | 4

114.38 МБ

В этой теме нет новых непрочитанных сообщений. [Drilled.xxx] Jojo Kiss & James Deen (Fuck My Ass Hard) [2017 г., Gonzo Anal]

salma3

35 | 11

774.68 МБ

В этой теме нет новых непрочитанных сообщений. Сборник - Русский Рок Золотой [2014, Rock, Classic Rock, Soft Rock, Hard Rock, MP3]

Nickolas3435

457 | 26

935.39 МБ

В этой теме нет новых непрочитанных сообщений. [AssholeFever.com / 21Sextury.com] Cherry Kiss (Hard Anal Time! / 22.07.17.) [2017 г., Gonzo, Anal, 540p]

salma3

33 | 11

369.2 МБ

В этой теме нет новых непрочитанных сообщений. Сборник - The Original Rock Meets Classic [2 CD] [2014, Rock, Hard Rock, FLAC]

Nickolas3435

185 | 11

1.05 ГБ


Начать новую тему Ответить на тему  [ 1 сообщение ] 




Для Мосгорсуда, Роскомнадзора и рекламодателей:: mosgorsud-torrent[собачка]yandex.ru