Торрент файл
скачать торрент магнет ссылка Добавлен: 08 янв 2012, 04:27
Размер: 3.99 ГБ
Сидеров: 0
Личеров: 6
Автор

СообщениеДобавлено: 08 янв 2012, 04:27 

Не в сети
Супермодератор
Аватара пользователя
Дата регистрации:
22 май 2010, 11:03
Возраст: 32
Спасибо: 7690 / 13
Сообщения: 49871
Катя Лель - Мой мармеладный


Формат: DVD5, DVD Video, MPEG2, AC3
Песня: Мой мармеладный
Жанр: Pop
Продолжительность: 01:26:32
Год выпуска: 2004

Видео: 720х576 (PAL 4:3), 25 fps, MPEG-2, ~8000 kbps avg, 0.772 bit/pixel
Аудио: 48 kHz, AC-3 , 6 ch (Front: L C R, Side: L R, LFE), 448.00 kbps avg

Доп. информация: Екатерина Николаевна Лель, до 2000 года носила фамилию Чупринина; (20 сентября 1974, Нальчик, Кабардино-Балкарская АССР) — российская эстрадная певица, автор некоторых собственных песен. Лель много гастролирует, дает благотворительные концерты в больницах, в детских домах, для детей инвалидов.
14 апреля 2008 года Кате Лель присвоено звание «Народная артистка Чеченской Республики». 20 сентября 2009 года, на праздновании 35-летия, присвоено почетное звание народной артистки республики Кабардино-Балкария.
В начале апреля 2011 года Катя Лель и Максим Фадеев снова начали совместную деятельность. Результатом стала новая песня «Твоя» (музыка М. Фадеев, сл. М. Фадеев и О. Серябкина), на которую был снят видеоклип (режиссёром выступил М. Фадеев).

Эксклюзивное интервью
01 Муси - Пуси
02 Долетай
03 Мой мармеладный (Я не права)
04 Между нами
05 Грустное слово – любовь
06 Горошины
07 Огни
08 Сама
09 Елисейские поля
10 Сердце бьётся
11 Незабытый мой
12 Я по тебе скучаю

Видео
Идентификатор: 224 (0xE0)
Формат: MPEG Video
Версия формата: Version 2
Профиль формата: Main@Main
Параметр BVOP формата: Да
Параметр матрицы формата: По умолчанию
Параметры GOP формата: M=3, N=13
Вид битрейта: Переменный
Битрейт: 8000 Кбит/сек
Ширина: 720 пикс.
Высота: 576 пикс.
Соотношение сторон: 4:3
Частота кадров: 25,000 кадр/сек
Стандарт вещания: PAL
Цветовое пространство: YUV
Подвыборка цветности: 4:2:0
Битовая глубина: 8 бит
Тип развёртки: Чересстрочная
Порядок развёртки: Верхнее поле первое
Метод сжатия: С потерями
Бит/(Пиксели*Кадры): 0.772
Размер потока: 2,98 Мбайт (0%)
Библиотека кодирования: MPEG12_RT_BS_RF1

Аудио
Идентификатор: 128 (0x80)
Формат: AC-3
Формат/Информация: Audio Coding 3
Расширение режима: CM (complete main)
Вид битрейта: Постоянный
Битрейт: 448 Кбит/сек
Канал(ы): 6 канала(ов)
Расположение каналов: Front: L C R, Side: L R, LFE
Частота: 48,0 КГц
Битовая глубина: 16 бит
Метод сжатия: С потерями
Задержка видео: -360 мс.
Размер потока: 171 Кбайт (0%)












Поделиться:




реклама партнёра


Вернуться к началу
 Профиль Отправить личное сообщение  
 
   Похожие торренты   Автор   Торрент   Размер 
В этой теме нет новых непрочитанных сообщений. Катя [2014 г., Amateur, CamRip]

Dievas

9 | 4

977.51 МБ

В этой теме нет новых непрочитанных сообщений. Катя [2015 г., Amateur, All Sex, Oral, CamRip]

Dievas

1 | 0

69.94 МБ

В этой теме нет новых непрочитанных сообщений. Катя из Белово [2016 г.,Amateur,Homemade, Russian., CamRip]

Dievas

12 | 0

378.61 МБ

В этой теме нет новых непрочитанных сообщений. Антон и Катя [2017 г., Amateur, Homemade, Russian, CamRip]

Dievas

173 | 14

92.85 МБ

В этой теме нет новых непрочитанных сообщений. Катя и Миша из Кемерово [2014 г., Amateur,blowjob,big tits,hardcore, CamRip]

friizze

63 | 13

2.65 ГБ

В этой теме нет новых непрочитанных сообщений. Восточный ветер 2 / Ostwind 2 (Катя фон Гарнье) [драма, мелодрама, приключения, семейный, 2015] HDRip [ViruseProject]

Dracon

927 | 97

1.47 ГБ

В этой теме нет новых непрочитанных сообщений. Из 13 в 30 / 13 Going on 30 [Комедия, мелодрама, 2004] DVD5, Mvo

salma3

7 | 0

4.33 ГБ


Начать новую тему Ответить на тему  [ 1 сообщение ] 




Для Мосгорсуда, Роскомнадзора и рекламодателей:: mosgorsud-torrent[собачка]yandex.ru