Торрент файл
скачать торрент магнет ссылка Добавлен: 08 янв 2012, 04:27
Размер: 4.09 ГБ
Сидеров: 4
Личеров: 5
Автор

СообщениеДобавлено: 08 янв 2012, 04:27 

Не в сети
Супермодератор
Аватара пользователя
Дата регистрации:
22 май 2010, 11:03
Возраст: 31
Спасибо: 7509 / 13
Сообщения: 49940
Plazma - Lonely


Формат: DVD5, DVD Video, MPEG2, МР2
Песня: Lonely
Жанр: Pop
Продолжительность: 01:15:45
Год выпуска: 2000-2011

Видео: 720х576 (PAL 4:3), 25 fps, MPEG-2, ~7021 kbps avg, 0.677 bit/pixel
Аудио: 48 kHz, МР-2 , 2 ch, 224.00 kbps avg

Доп. информация: PLAZMA - это Роман Черницын (вокал, музыка, тексты) и Максим Постельный (бэк-вокал, клавиши, музыка, аранжировки). Стиль, в котором играет группа, варьируется от мягкого синти-попа до полного драйва поп-рока, но по большей части это мелодичная танцевальная музыка для неисправимых романтиков.
PLAZMA – первая российская поп-группа, отважившаяся петь на английском языке для русскоговорящей аудитории и завоевавшая признание и любовь слушателей по всей стране. Первые два альбома группы были проданы тиражом более 1 млн. копий, песни регулярно занимали верхние строчки всевозможных хит-парадов. С выхода в 2000 году дебютного альбома Plazma завоевала практически все возможные национальные музыкальные награды и была удостоена премии Попова за наибольшее количество радиоэфиров.

01 Lonely
02 You'll never meet angel
03 A bit of perfection
04 Take my love
05 The sweetest surrender
06 One life
07 Lonely II
08 You'll never meet angel (live)
09 Mystery
10 Enjoy the silence (live)
11 Never Ending Story
12 607 (live)
13 A bit of perfection (live)
14 Save (live)
15 Black would be white (live)
16 LearnMusic Live 12.12.2008

Общее
Формат: MPEG-PS
Общий поток: 7392 Кбит/сек

Видео
Идентификатор: 224 (0xE0)
Формат: MPEG Video
Версия формата: Version 2
Профиль формата: Main@Main
Параметр BVOP формата: Да
Параметр матрицы формата: По умолчанию
Параметры GOP формата: M=3, N=13
Вид битрейта: Переменный
Битрейт: 7021 Кбит/сек
Номинальный битрейт: 9008 Кбит/сек
Ширина: 720 пикс.
Высота: 576 пикс.
Соотношение сторон: 4:3
Частота кадров: 25,000 кадр/сек
Стандарт вещания: PAL
Цветовое пространство: YUV
Подвыборка цветности: 4:2:0
Битовая глубина: 8 бит
Тип развёртки: Прогрессивная
Метод сжатия: С потерями
Бит/(Пиксели*Кадры): 0.677
Размер потока: 972 Мбайт (95%)

Аудио
Идентификатор: 192 (0xC0)
Формат: MPEG Audio
Версия формата: Version 1
Профиль формата: Layer 2
Вид битрейта: Постоянный
Битрейт: 224 Кбит/сек
Канал(ы): 2 канала(ов)
Частота: 48,0 КГц
Метод сжатия: С потерями
Размер потока: 31,0 Мбайт (3%)











Поделиться:




реклама партнёра


Вернуться к началу
 Профиль Отправить личное сообщение  
 
   Похожие торренты   Автор   Торрент   Размер 
В этой теме нет новых непрочитанных сообщений. Los Lonely Boys - Rockpango [2011, Blues Rock, MP3]

PriZraK

0 | 1

162.64 МБ

В этой теме нет новых непрочитанных сообщений. Braveyoung- We Are Lonely Animals [2011, Post-Rock, MP3]

PriZraK

0 | 2

109.32 МБ

В этой теме нет новых непрочитанных сообщений. The Beatle Bronies - Sgt. Pinkie's Lonely Hooves Club Band [15.08.2011, Rock, MP3]

PriZraK

0 | 1

57.76 МБ

В этой теме нет новых непрочитанных сообщений. Одинокое место для смерти / Похищенная / A Lonely Place to Die [триллер, драма, боевик, криминал, 2011] BDRip, Mvo [Лицензия]

salma3

123 | 6

1.45 ГБ

В этой теме нет новых непрочитанных сообщений. The Raconteurs - Consolers Of The Lonely [2008, Rock, MP3]

PriZraK

0 | 1

114.01 МБ

В этой теме нет новых непрочитанных сообщений. Поймет лишь одинокий / Only the Lonely [мелодрама, комедия, 1991] WEBRip, Mvo

salma3

0 | 0

1.45 ГБ

В этой теме нет новых непрочитанных сообщений. Шантаж / BlackMale [триллер, 2000] DVD5, Mvo

salma3

41 | 8

3.7 ГБ


Начать новую тему Ответить на тему  [ 1 сообщение ] 




Для Мосгорсуда, Роскомнадзора и рекламодателей:: mosgorsud-torrent[собачка]yandex.ru