Торрент файл
скачать торрент магнет ссылка Добавлен: 08 янв 2012, 04:25
Размер: 4.17 ГБ
Сидеров: 7
Личеров: 6
Автор

СообщениеДобавлено: 08 янв 2012, 04:25 

Не в сети
Супермодератор
Аватара пользователя
Дата регистрации:
22 май 2010, 11:03
Возраст: 37
Спасибо: 7939 / 13
Сообщения: 49828
Кипелов - Путь Наверх

Формат: DVD5, DVD Video, MPEG 2, AC 3
Песня: Путь Наверх
Жанр: Heavy Metal
Продолжительность: 01:48:49
Год выпуска: 2004
Видео: MPEG 2 VIDEO, 720*576( PAL 4:3), 25.00 fps, ~5106 kbps avg, 0.493 bit/pixel
Аудио: 48,0 khz, AC 3, 6 ch, 448 kbps avg
Доп. информация: Концерт в Дворце спорта "Юбилейный", Санкт-Петербург. 24 мая 2003 года. Бонус: видеоклип "Я свободен", тексты песен, слайд шоу.
    Состав
Валерий Кипелов - вокал
Сергей Маврин - гитара
Сергей Терентьев - гитара,
Алексей Харьков - бас-гитара
Александр Манякин - барабаны.
    Треклист
1. Путь наверх
2. Я не сошел с ума
3. Грязь
4. Бесы
5. Дьявольский зной
6. Castlevania
7. Я свободен
8. Путь в никуда
9. Следуй за мной
10. Потерянный рай
11. Беспечный ангел
12. Герой асфальта
13. Мертвая зона
14. Закат
15. Возьми мое сердце
16. Тореро
17. Машина смерти
18. Воля и разум
Title: Kipelov Put Na Verh
Size: 4.17 Gb ( 4 369 992,00 KBytes ) - DVD-5
Enabled regions: 1, 2, 3, 4, 5, 6, 7, 8

VTS_01 :
Play Length: 00:00:29+00:01:22+00:04:51+00:00:08+00:00:48+01:33:54+00:07:17+{01:33:54}
Video: PAL 4:3 (720x576) VBR
Audio:
Russian, AC3, 3/2 (L,C,R,SL,SR)+LFE ch, 448 kbps, Delay 0 mSec

Subtitles:
Russian

* Menus Information *

VIDEO_TS Menu
Video:
PAL 4:3 (720x576) VBR
Russian Language Unit :
Title Menu

VTS_01 Menu
Video:
PAL 4:3 (720x576) VBR
Audio:
Not specified (Dolby AC3, 6 ch)
Russian Language Unit :
Root Menu
Общее
Полное имя: D:\Torrents\Download\Kipelov Put Na Verh\VIDEO_TS\VTS_01_2.VOB
Формат: MPEG-PS
Размер файла: 1024 Мбайт
Продолжительность: 25 м.
Общий поток: 5667 Кбит/сек

Видео
Идентификатор: 224 (0xE0)
Формат: MPEG Video
Версия формата: Version 2
Профиль формата: Main@Main
Параметр BVOP формата: Да
Параметр матрицы формата: По умолчанию
Параметры GOP формата: M=3, N=12
Продолжительность: 25 м.
Вид битрейта: Переменный
Битрейт: 5106 Кбит/сек
Номинальный битрейт: 9000 Кбит/сек
Ширина: 720 пикс.
Высота: 576 пикс.
Соотношение сторон: 4:3
Частота кадров: 25,000 кадр/сек
Стандарт вещания: PAL
Цветовое пространство: YUV
Подвыборка цветности: 4:2:0
Битовая глубина: 8 бит
Тип развёртки: Чересстрочная
Порядок развёртки: Нижнее поле первое
Метод сжатия: С потерями
Бит/(Пиксели*Кадры): 0.493
Размер потока: 923 Мбайт (90%)

Аудио
Идентификатор: 128 (0x80)
Формат: AC-3
Формат/Информация: Audio Coding 3
Расширение режима: CM (complete main)
Продолжительность: 25 м.
Вид битрейта: Постоянный
Битрейт: 448 Кбит/сек
Каналы: 6 каналов
Расположение каналов: Front: L C R, Side: L R, LFE
Частота: 48,0 КГц
Битовая глубина: 16 бит
Метод сжатия: С потерями
Задержка видео: -264 мс.
Размер потока: 80,9 Мбайт (8%)

Меню













[b]Поделиться:



Вернуться к началу
 Профиль Отправить личное сообщение  
 
   Похожие торренты   Автор   Торрент   Размер 
В этой теме нет новых непрочитанных сообщений. Подростки спермаголики 2 / Teenage Spermaholics 2 (2004) DVD5

zorgi

22 | 58

4.35 ГБ

В этой теме нет новых непрочитанных сообщений. Vivid - Глаза другой женщины / Another Woman's Eyes (2004) DVD5

zorgi

0 | 0

4.36 ГБ

В этой теме нет новых непрочитанных сообщений. Gueppardo - I Am The Law [2021 г., Heavy-Metal, Hard-Rock, MP3]

zorgi

0 | 0

77.49 МБ

В этой теме нет новых непрочитанных сообщений. W.A.S.P. - Dominator (FLAC) [Heavy Metal, 2007] FLAC (image+.cue), lossless

Redscarf

12 | 0

326.62 МБ

В этой теме нет новых непрочитанных сообщений. Oomph! - Wahrheit oder Pflicht [Industrial Metal, 2004] FLAC (image+.cue), lossless

Redscarf

7 | 0

423.86 МБ

В этой теме нет новых непрочитанных сообщений. Проклятый путь / Road to Perdition [Триллер, драма, приключения, 2002] WEB-DLRip 720p, Dub [Open Matte]

salma3

0 | 0

7.75 ГБ

В этой теме нет новых непрочитанных сообщений. Звёздный путь: Дискавери / Star Trek: Discovery (Сезон 3 , Серия 1 - 13 из 13 ) (Олатунде Осунсанми, Джонатан Фрейкс) [2020,Фантастика, боевик, приключения,WEB-DLRip - HEVC 10bit - 1080p] [LostFilm +SDI Media + NewStudio+Eng]+[Subs Rus , EN

Враг Нароода

0 | 0

31.38 ГБ


Начать новую тему Ответить на тему  [ 1 сообщение ] 




Для Мосгорсуда, Роскомнадзора и рекламодателей:: rstracker[собака]yandex.ru
cron