Торрент файл
скачать торрент магнет ссылка Добавлен: 08 янв 2012, 04:25
Размер: 4.17 ГБ
Сидеров: 7
Личеров: 5
Автор

СообщениеДобавлено: 08 янв 2012, 04:25 

Не в сети
Супермодератор
Аватара пользователя
Дата регистрации:
22 май 2010, 11:03
Возраст: 31
Спасибо: 7509 / 13
Сообщения: 49940
Кипелов - Путь Наверх

Формат: DVD5, DVD Video, MPEG 2, AC 3
Песня: Путь Наверх
Жанр: Heavy Metal
Продолжительность: 01:48:49
Год выпуска: 2004
Видео: MPEG 2 VIDEO, 720*576( PAL 4:3), 25.00 fps, ~5106 kbps avg, 0.493 bit/pixel
Аудио: 48,0 khz, AC 3, 6 ch, 448 kbps avg
Доп. информация: Концерт в Дворце спорта "Юбилейный", Санкт-Петербург. 24 мая 2003 года. Бонус: видеоклип "Я свободен", тексты песен, слайд шоу.
    Состав
Валерий Кипелов - вокал
Сергей Маврин - гитара
Сергей Терентьев - гитара,
Алексей Харьков - бас-гитара
Александр Манякин - барабаны.
    Треклист
1. Путь наверх
2. Я не сошел с ума
3. Грязь
4. Бесы
5. Дьявольский зной
6. Castlevania
7. Я свободен
8. Путь в никуда
9. Следуй за мной
10. Потерянный рай
11. Беспечный ангел
12. Герой асфальта
13. Мертвая зона
14. Закат
15. Возьми мое сердце
16. Тореро
17. Машина смерти
18. Воля и разум
Title: Kipelov Put Na Verh
Size: 4.17 Gb ( 4 369 992,00 KBytes ) - DVD-5
Enabled regions: 1, 2, 3, 4, 5, 6, 7, 8

VTS_01 :
Play Length: 00:00:29+00:01:22+00:04:51+00:00:08+00:00:48+01:33:54+00:07:17+{01:33:54}
Video: PAL 4:3 (720x576) VBR
Audio:
Russian, AC3, 3/2 (L,C,R,SL,SR)+LFE ch, 448 kbps, Delay 0 mSec

Subtitles:
Russian

* Menus Information *

VIDEO_TS Menu
Video:
PAL 4:3 (720x576) VBR
Russian Language Unit :
Title Menu

VTS_01 Menu
Video:
PAL 4:3 (720x576) VBR
Audio:
Not specified (Dolby AC3, 6 ch)
Russian Language Unit :
Root Menu
Общее
Полное имя: D:\Torrents\Download\Kipelov Put Na Verh\VIDEO_TS\VTS_01_2.VOB
Формат: MPEG-PS
Размер файла: 1024 Мбайт
Продолжительность: 25 м.
Общий поток: 5667 Кбит/сек

Видео
Идентификатор: 224 (0xE0)
Формат: MPEG Video
Версия формата: Version 2
Профиль формата: Main@Main
Параметр BVOP формата: Да
Параметр матрицы формата: По умолчанию
Параметры GOP формата: M=3, N=12
Продолжительность: 25 м.
Вид битрейта: Переменный
Битрейт: 5106 Кбит/сек
Номинальный битрейт: 9000 Кбит/сек
Ширина: 720 пикс.
Высота: 576 пикс.
Соотношение сторон: 4:3
Частота кадров: 25,000 кадр/сек
Стандарт вещания: PAL
Цветовое пространство: YUV
Подвыборка цветности: 4:2:0
Битовая глубина: 8 бит
Тип развёртки: Чересстрочная
Порядок развёртки: Нижнее поле первое
Метод сжатия: С потерями
Бит/(Пиксели*Кадры): 0.493
Размер потока: 923 Мбайт (90%)

Аудио
Идентификатор: 128 (0x80)
Формат: AC-3
Формат/Информация: Audio Coding 3
Расширение режима: CM (complete main)
Продолжительность: 25 м.
Вид битрейта: Постоянный
Битрейт: 448 Кбит/сек
Каналы: 6 каналов
Расположение каналов: Front: L C R, Side: L R, LFE
Частота: 48,0 КГц
Битовая глубина: 16 бит
Метод сжатия: С потерями
Задержка видео: -264 мс.
Размер потока: 80,9 Мбайт (8%)

Меню













[b]Поделиться:




реклама партнёра


Вернуться к началу
 Профиль Отправить личное сообщение  
 
   Похожие торренты   Автор   Торрент   Размер 
В этой теме нет новых непрочитанных сообщений. Кипелов - Возвращение в Москву [2011, Heavy Metal, MP3]

PriZraK

12 | 3

310.91 МБ

В этой теме нет новых непрочитанных сообщений. Кипелов - Х лет. Крокус Сити Холл 1.12.2012 [Heavy Metal, 2013] BDRip 1080p

Dracon

31 | 5

17.31 ГБ

В этой теме нет новых непрочитанных сообщений. Джеймс Браун: Путь наверх / Get on Up (Тейт Тейлор) [драма, биография, музыка, 2014] HDRip, Dub [iTunes]

Dracon

1 | 3

1.47 ГБ

В этой теме нет новых непрочитанных сообщений. Джеймс Браун: Путь наверх / Get on Up (Тейт Тейлор) [драма, биография, музыка, 2014] HDRip, Dub [iTunes]

Dracon

5 | 3

2.18 ГБ

В этой теме нет новых непрочитанных сообщений. Джеймс Браун: Путь наверх / Get on Up (Тейт Тейлор) [2014, Драма, биография, музыка, BDRip | Лицензия] Dub

Nickolas3435

130 | 5

2.56 ГБ

В этой теме нет новых непрочитанных сообщений. Джеймс Браун: Путь наверх / Get on Up (Тейт Тейлор) [драма, биография, музыка, 2014] BDRip 720p, Dub [iTunes]

Dracon

25 | 3

8.92 ГБ

В этой теме нет новых непрочитанных сообщений. Джеймс Браун: Путь наверх / Get on Up (Тейт Тейлор) [2014, Драма, биография, музыка, BDRip 720p | Лицензия] Dub

Nickolas3435

36 | 3

9.73 ГБ


Начать новую тему Ответить на тему  [ 1 сообщение ] 




Для Мосгорсуда, Роскомнадзора и рекламодателей:: mosgorsud-torrent[собачка]yandex.ru