Торрент файл
скачать торрент магнет ссылка Добавлен: 08 янв 2012, 04:25
Размер: 4.36 ГБ
Сидеров: 7
Личеров: 7
Автор

СообщениеДобавлено: 08 янв 2012, 04:25 

Не в сети
Супермодератор
Аватара пользователя
Дата регистрации:
22 май 2010, 11:03
Возраст: 31
Спасибо: 7509 / 13
Сообщения: 49940
AC/DC - No bull - Plaza De Toros De Las Ventas, Madrid

Формат: DVD5 (сжатый), DVD Video, MPEG2, AC3
Песня: NO BULL - Plaza De Toros De Las Ventas, Madrid
Жанр: Rock
Продолжительность: 02:01:59
Год выпуска: 1996
Видео: MPEG 2 VIDEO, 720*576( PAL 4:3), 25.00 fps, ~4227 kbps avg, 0.408 bit/pixel
Аудио #1: 48,0 khz, AC 3, 5 ch, 448 kbps avg
Аудио #2: 48.0 khz, AC 3, 2 ch, 192 kbps avg
Доп. информация: Концерт в Мадриде, Испания. 10 июля 1996 года. Бонус - видеоклип "Hard As A Rock".
    Треклист
01. Back In Black
02. Shot Down In Flames
03. Thunderstruck
04. Girl's Got Rythm
05. Hard As A Rock
06. Shoot To Thrill
07. Boogie Man
08. Hail Caesar
09. Hells Bells
10. Dog Eat Dog
11. The Jack
12. Ballbreaker
13. Rock And Roll Ain't Noise Pollution
14. Dirty Deeds Done Dirt Cheap
15. You Shook Me All Night Long
16. Whole lotta Rosie
17. T.N.T.
18. Let There Be Rock
19. Highway To Hell
20. For Those About To Rock

Удалил: предупреждение, заставку, субтитры, the making of hard as a rock. Видео сжато на 21 процент.
Title: AC DC - No Bull
Size: 4.36 Gb ( 4 571 136,00 KBytes ) - DVD-5
Enabled regions: 1, 2, 3, 4, 5, 6, 7, 8

VTS_01 :
Play Length: 02:01:59
Video: PAL 4:3 (720x576) VBR
Audio:
English, AC3, 3/2 (L,C,R,SL,SR) ch, 448 kbps, Delay 0 mSec
English, AC3, 2/0 (L,R) ch, 192 kbps, Delay 0 mSec

VTS_02 :
Play Length: 00:00:00+00:04:29
Video: PAL 4:3 (720x576) VBR
Audio:
English (Dolby AC3, 2 ch)

* Menus Information *

VIDEO_TS Menu
Video:
PAL 4:3 (720x576) VBR
Audio:
Not specified (Dolby AC3, 2 ch)
English Language Unit :
Title Menu

VTS_01 Menu
Video:
PAL 4:3 (720x576) VBR
Audio:
Not specified (Dolby AC3, 2 ch)
English Language Unit :
Root Menu
Subpicture Menu
Angle menu

VTS_02 Menu
Video:
NTSC 4:3 (720x480) VBR
Auto Pan&Scan, Auto Letterboxed
English Language Unit :
Root Menu
Общее
Полное имя: D:\Torrents\Download\AC DC - No Bull\VIDEO_TS\VTS_01_1.VOB
Формат: MPEG-PS
Размер файла: 1024 Мбайт
Продолжительность: 28 м.
Общий поток: 4965 Кбит/сек

Видео
Идентификатор: 224 (0xE0)
Формат: MPEG Video
Версия формата: Version 2
Профиль формата: Main@Main
Параметр BVOP формата: Да
Параметр матрицы формата: По умолчанию
Продолжительность: 28 м.
Вид битрейта: Переменный
Битрейт: 4227 Кбит/сек
Номинальный битрейт: 8000 Кбит/сек
Ширина: 720 пикс.
Высота: 576 пикс.
Соотношение сторон: 4:3
Частота кадров: 25,000 кадр/сек
Стандарт вещания: PAL
Цветовое пространство: YUV
Подвыборка цветности: 4:2:0
Битовая глубина: 8 бит
Тип развёртки: Чересстрочная
Порядок развёртки: Верхнее поле первое
Метод сжатия: С потерями
Бит/(Пиксели*Кадры): 0.408
Размер потока: 872 Мбайт (85%)

Аудио #1
Идентификатор: 128 (0x80)
Формат: AC-3
Формат/Информация: Audio Coding 3
Расширение режима: CM (complete main)
Продолжительность: 28 м.
Вид битрейта: Постоянный
Битрейт: 448 Кбит/сек
Каналы: 5 каналов
Расположение каналов: Front: L C R, Side: L R
Частота: 48,0 КГц
Битовая глубина: 16 бит
Метод сжатия: С потерями
Размер потока: 92,4 Мбайт (9%)

Аудио #2
Идентификатор: 129 (0x81)
Формат: AC-3
Формат/Информация: Audio Coding 3
Расширение режима: CM (complete main)
Продолжительность: 28 м.
Вид битрейта: Постоянный
Битрейт: 192 Кбит/сек
Каналы: 2 канала
Расположение каналов: Front: L R
Частота: 48,0 КГц
Битовая глубина: 16 бит
Метод сжатия: С потерями
Размер потока: 39,6 Мбайт (4%)

Меню












[b]Поделиться:




реклама партнёра


Вернуться к началу
 Профиль Отправить личное сообщение  
 
   Похожие торренты   Автор   Торрент   Размер 
В этой теме нет новых непрочитанных сообщений. Roger Waters - Madrid Experiment (live) [2011, Rock, MP3]

PriZraK

0 | 1

274.29 МБ

В этой теме нет новых непрочитанных сообщений. Kings of Leon - Mechanical Bull (Deluxe Edition) [2013, Alt.Rock, Indie Rock, MP3]

PriZraK

0 | 1

116.54 МБ

В этой теме нет новых непрочитанных сообщений. Black Bull - Rock All Night [2013, Hard Rock, MP3]

PriZraK

0 | 1

99.84 МБ

В этой теме нет новых непрочитанных сообщений. 13th Floor Elevators - Bull Of The Woods (Reissue 2004) [2004, Psychedelic Rock, Garage Rock, MP3]

PriZraK

0 | 1

151.8 МБ

В этой теме нет новых непрочитанных сообщений. Горько! 2 [комедия, 2014] DVD5 [Сжатый]

Dracon

46 | 4

4.36 ГБ

В этой теме нет новых непрочитанных сообщений. Двойник / The Double [триллер, драма, 2013] DVD5, Mvo [Сжатый]

Dracon

34 | 4

4.34 ГБ

В этой теме нет новых непрочитанных сообщений. Семейка Крудс / The Croods [Мультфильм, 2013] DVD5, Dub+Sub [Сжатый]

salma3

13 | 6

4.31 ГБ


Начать новую тему Ответить на тему  [ 1 сообщение ] 




Для Мосгорсуда, Роскомнадзора и рекламодателей:: mosgorsud-torrent[собачка]yandex.ru