Торрент файл
скачать торрент магнет ссылка Добавлен: 08 янв 2012, 04:24
Размер: 3.53 ГБ
Сидеров: 15
Личеров: 6
Автор

СообщениеДобавлено: 08 янв 2012, 04:24 

Не в сети
Супермодератор
Аватара пользователя
Дата регистрации:
22 май 2010, 11:03
Возраст: 31
Спасибо: 7509 / 13
Сообщения: 49940
VA - Лучшее от ELLO Vol. 9


Формат: DVD5, DVD Video, MPEG2, AC3
Песня: Лучшее от ELLO Vol. 9
Жанр: Pop, R'n'B
Продолжительность: 01:59:39
Год выпуска: 2011

Видео: 720х576 (PAL 4:3), 25 fps, MPEG-2, ~3747 kbps avg, 0.361 bit/pixel
Аудио: 48 kHz, AC-3 , 2 ch, 192.00 kbps avg

Доп. информация: Материал взят с канала Ello - который представляет в свою очередь новинки как российской так и зарубежной попсы. Отличный профессиональный музыкальный канал. Здесь можно увидеть как звезд так и совершенно молодых исполнителей. Предлагаю Вашему вниманию ДЕВЯТУЮ подбороку с этого канала.
01 Gaudi – Зима
02 Н. Пугачева - Я не дышу
03 Монако - Дело мое
04 Т. Ширко – Исповедь
05 Все включено - Солнце на закат
06 LiLu - Любовь опасная как нож
07 Мариетта - Уходило лето
08 Банд`Эрос - Не вспоминай
09 О. Полякова - 90-60-90
10 Real O - Уходи на фиг
11 Точка G - Цветная любовь (Remix)
12 Чи-Ли - Новый год в постели
13 И. Кудикова - Я сделаю все как ты хочешь
14 IKA - Держи меня за руку
15 К. Баженова - Спасибо тебе, лето!
16 Дискотека Авария - Недетское время
17 Лавика - Ты уходи
18 Serebro - Мама Люба
19 Непара - Бог тебя выдумал
20 Dj Rem & Mc Phil - Дорога в Рай
21 Слава - Крик души моей
22 ДиО.фильмы - Ты зря ему дала
23 Чи-Ли - Можно все
24 Макс Барских – Агония
25 Герои - Любовь-это химия
26 IKA - Нули в любви
27 Винтаж – Мальчик
28 Quest Pistols - Ты так красива
29 Валерий Меладзе - Салют, Вера
30 А. Седокова – Космос
31 Iowa — Простая песня
32 Д. Коляденко - Дима Коляденко

Общее
Формат: MPEG-PS
Общий поток: 4019 Кбит/сек

Видео
Идентификатор: 224 (0xE0)
Формат: MPEG Video
Версия формата: Version 2
Профиль формата: Main@Main
Параметр BVOP формата: Да
Параметр матрицы формата: По умолчанию
Параметры GOP формата: M=3, N=15
Вид битрейта: Переменный
Битрейт: 3747 Кбит/сек
Номинальный битрейт: 9008 Кбит/сек
Ширина: 720 пикс.
Высота: 576 пикс.
Соотношение сторон: 4:3
Частота кадров: 25,000 кадр/сек
Стандарт вещания: PAL
Цветовое пространство: YUV
Подвыборка цветности: 4:2:0
Битовая глубина: 8 бит
Тип развёртки: Прогрессивная
Метод сжатия: С потерями
Бит/(Пиксели*Кадры): 0.361
Размер потока: 955 Мбайт (93%)

Аудио
Идентификатор: 128 (0x80)
Формат: AC-3
Формат/Информация: Audio Coding 3
Расширение режима: CM (complete main)
Вид битрейта: Постоянный
Битрейт: 192 Кбит/сек
Канал(ы): 2 канала(ов)
Расположение каналов: Front: L R
Частота: 48,0 КГц
Битовая глубина: 16 бит
Метод сжатия: С потерями
Размер потока: 48,9 Мбайт (5%)













Поделиться:




реклама партнёра


Вернуться к началу
 Профиль Отправить личное сообщение  
 
   Похожие торренты   Автор   Торрент   Размер 
В этой теме нет новых непрочитанных сообщений. Освенцим / Auschwitz [драма, 2011] DVD5, Mvo+Sub [лицензия]

Dracon

57 | 7

3.77 ГБ

В этой теме нет новых непрочитанных сообщений. Уловка .44 / Catch .44 [триллер, драма, криминал, 2011] DVD5, Mvo+Sub

salma3

10 | 8

4.37 ГБ

В этой теме нет новых непрочитанных сообщений. Многоэтажка / Небоскреб смерти / Tower Block [триллер, 2011] DVD5, Mvo+Sub

salma3

9 | 7

4.32 ГБ

В этой теме нет новых непрочитанных сообщений. Маленький убийца / Little Murder [триллер, драма, 2011] DVD5, Mvo [лицензия]

salma3

0 | 2

3.93 ГБ

В этой теме нет новых непрочитанных сообщений. Военные игры / War Games: At the End of the Day [Триллер, боевик, ужасы, 2011] DVD5, Mvo

salma3

15 | 11

4.35 ГБ

В этой теме нет новых непрочитанных сообщений. 12 Рождественских желаний / 12 Wishes of Christmas [фэнтези, комедия, 2011] DVD5, Mvo [лицензия]

salma3

48 | 7

3.92 ГБ

В этой теме нет новых непрочитанных сообщений. Последний час Земли / Earth's Final Hours [Фантастика, 2011] DVD5, Mvo [Лицензия]

salma3

41 | 14

4.01 ГБ


Начать новую тему Ответить на тему  [ 1 сообщение ] 




Для Мосгорсуда, Роскомнадзора и рекламодателей:: mosgorsud-torrent[собачка]yandex.ru