Торрент файл
скачать торрент магнет ссылка Добавлен: 08 янв 2012, 04:23
Размер: 4.36 ГБ
Сидеров: 7
Личеров: 5
Автор

СообщениеДобавлено: 08 янв 2012, 04:23 

Не в сети
Супермодератор
Аватара пользователя
Дата регистрации:
22 май 2010, 11:03
Возраст: 31
Спасибо: 7509 / 13
Сообщения: 49940
Дискотека Авария - Disco Superstar

Формат: DVD5, DVD Video, MPEG2, AC3
Песня: Disco Superstar
Жанр: Pop
Продолжительность: 02:45:27
Год выпуска: 1999-2011

Видео: 720х576 (PAL 4:3), 25 fps, MPEG-2, ~3044 kbps avg, 0.294 bit/pixel
Аудио: 48 kHz, AC-3 , 6 ch (Front: L C R, Side: L R, LFE), 448.00 kbps avg

Доп. информация: Дискотека Авария — российская музыкальная группа из г. Иваново. Лауреат множества премий и наград, в том числе премии Муз-ТВ 2003, 2004, 2007 и 2010. Группа специализируется на танцевальной музыке с юмористическими текстами.
Основателями группы стали одноклассники Николай Тимофеев и Алексей Рыжов, вместе игравшие в КВН. В 1992 году к Тимофееву и Рыжову примкнул бывший актёр Олег Жуков, а в 1996 — Алексей Серов. В 1997 группа выпустила свой первый музыкальный альбом «Танцуй со Мной».
9 февраля 2002 года после продолжительной болезни скончался Олег Жуков. Деятельность группы на время приостанавливается, после её возобновления выходит макси-сингл «Х. Х. Х. И. Р. Н. Р.», следом — сингл «Небо», обе песни были успешными в хит-парадах. На эти песни, а также на песни «Суровый рэп» и «Если хочешь остаться» были сняты видеоклипы. Видеоклип «Небо» был назван каналом Муз-ТВ лучшим клипом 2004 года.
Состав:
Николай Тимофеев
Алексей Рыжов
Алексей Серов

Олег Жуков
P.S. Этот диск я собрал в память о четвертом учаснике группы Олеге Жукове
01 Disco Superstar
02 Влечение
03 Заколебал ты
04 Давай Авария
05 Некуда деваться
06 Пей пиво
07 Новогодняя
08 Кинула ты
09 Прощай
10 У нас молодых
11 Арам зам зам
12 Малинки (feat. Жанна Фриске)
13 Суровый реп
14 Девочка моя синеглазая
15 Небо
16 Песня про яйца
17 Диско
18 Хип Хоп маньяки (Remix)
19 Если хочешь остаться
20 Отцы
21 Мадонна
22 Опа
23 Звезда
24 Паша Face Control (Remix)
25 Планета любовь
26 Лето всегда
27 Маруся
28 Зло
29 Небо (feat. Моральный Кодекс)
30 Х.Х.Х.И.Р.Н.Р.
31 Кострома Remix (feat. Иван Купала)
32 На острие атаки
33 Новогодняя 2010
34 Песня разбойников
35 Чао, Бамбино! (feat. Блестящие)
36 Увезу тебя я в тундру
37 Суровый реп (MIX)
38 Недетское время
39 Отцы (remix)
40 Серенада

Общее
Формат: MPEG-PS
Общий поток: 3563 Кбит/сек

Видео
Идентификатор: 224 (0xE0)
Формат: MPEG Video
Версия формата: Version 2
Профиль формата: Main@Main
Параметр BVOP формата: Да
Параметр матрицы формата: По умолчанию
Параметры GOP формата: M=3, N=13
Вид битрейта: Переменный
Битрейт: 3044 Кбит/сек
Номинальный битрейт: 9008 Кбит/сек
Ширина: 720 пикс.
Высота: 576 пикс.
Соотношение сторон: 4:3
Частота кадров: 25,000 кадр/сек
Стандарт вещания: PAL
Цветовое пространство: YUV
Подвыборка цветности: 4:2:0
Битовая глубина: 8 бит
Тип развёртки: Прогрессивная
Метод сжатия: С потерями
Бит/(Пиксели*Кадры): 0.294
Размер потока: 875 Мбайт (85%)

Аудио
Идентификатор: 128 (0x80)
Формат: AC-3
Формат/Информация: Audio Coding 3
Расширение режима: CM (complete main)
Вид битрейта: Постоянный
Битрейт: 448 Кбит/сек
Канал(ы): 6 канала(ов)
Расположение каналов: Front: L C R, Side: L R, LFE
Частота: 48,0 КГц
Битовая глубина: 16 бит
Метод сжатия: С потерями
Размер потока: 129 Мбайт (13%)













Поделиться:




реклама партнёра


Вернуться к началу
 Профиль Отправить личное сообщение  
 
   Похожие торренты   Автор   Торрент   Размер 
В этой теме нет новых непрочитанных сообщений. Дискотека Авария - Девушка за рулём [2014, Pop, MP3]

Nickolas3435

209 | 23

95.25 МБ

В этой теме нет новых непрочитанных сообщений. VA - Дискотека 80-90х по-новому 2 [2015, Disco, Pop, MP3]

Nickolas3435

647 | 15

1002.89 МБ

В этой теме нет новых непрочитанных сообщений. VA - Легендарная дискотека 90-х [2014, Disco, Dance, Pop, MP3]

Nickolas3435

986 | 21

720.01 МБ

В этой теме нет новых непрочитанных сообщений. VA - Турбо дискотека 50 на 50 [Pop, Disco, 2014] MP3, 256kbps

Dracon

49 | 4

671.01 МБ

В этой теме нет новых непрочитанных сообщений. Сборник - Зарубежная Дискотека 90-Х [2014, Pop, Disco, Eurodance, MP3]

Nickolas3435

447 | 10

835.4 МБ

В этой теме нет новых непрочитанных сообщений. Сборник - Назад В СССР - Дискотека 80-х, 90-х [2014, Pop, Disco, MP3]

Nickolas3435

926 | 35

699.56 МБ

В этой теме нет новых непрочитанных сообщений. VA - Дискотека в стиле Blue System [Pop, Disco, 2014] MP3, 128-320kbps

Dracon

66 | 6

709.04 МБ


Начать новую тему Ответить на тему  [ 1 сообщение ] 




Для Мосгорсуда, Роскомнадзора и рекламодателей:: mosgorsud-torrent[собачка]yandex.ru