Торрент файл
скачать торрент магнет ссылка Добавлен: 08 янв 2012, 04:23
Размер: 3.44 ГБ
Сидеров: 9
Личеров: 10
Автор

СообщениеДобавлено: 08 янв 2012, 04:23 

Не в сети
Супермодератор
Аватара пользователя
Дата регистрации:
22 май 2010, 11:03
Возраст: 37
Спасибо: 7939 / 13
Сообщения: 49828
Светлана Разина - Музыка нас связала


Формат: DVD5, DVD Video, MPEG2, PCM
Песня: Музыка нас связала
Жанр: Рор
Продолжительность: 01:13:57
Год выпуска: 2008

Видео: 720х576 (PAL 4:3), 25 fps, MPEG-2, ~4383 kbps avg, 0.423 bit/pixel
Аудио: 48 kHz, PCM , 2 ch, 1536.00 kbps avg

Доп. информация: С 1987 года солистка группы «Мираж». Выступала в основном составе группы вместе с Наталией Гулькиной. После ухода Гулькиной из группы, продолжила работать с Наталией Ветлицкой и Инной Смирновой. Автор песен группы «Мираж» — «Новый герой», «Я не шучу» и «Где я». В 1988 году, работая в группе «Мираж», совместно с художественным руководителем и поэтом группы — Валерием Соколовым принимает участие как автор текстов и певица в записи дебютного альбома клавишника группы Ромы Жукова «Пыль мечты». В 1994 году начинает сольную карьеру. Выпускает несколько сольных альбомов, участвует в международных проектах, пишет стихи и сотрудничает с многими звездами российской эстрады, не только как исполнительница, но и как автор.
В 2008 году выходит долгожданный альбом Светланы «Музыка нас связала», включая суперхиты «Света», «Новый герой» и другие.

1. Не провожай
2. Нравится
3. Каменный лев
4. Миражи (feat. «Восток» & Рома Жуков)
5. Света
6. Ночной охотник
7. Плакать
8. Позвони сама
9. Ты вернешься (feat. «Комиссар»)
10. Голубой экспресс
11. Демон
12. Бабочка-ночь
13. Короче (feat. Валерия Лесовская)
14. Белая луна
15. Новый герой
16. Наступает ночь
17. Музыка нас связала
18. Электричество
19. Чувство

Общее
Формат: MPEG-PS
Общий поток: 6039 Кбит/сек

Видео
Идентификатор: 224 (0xE0)
Формат: MPEG Video
Версия формата: Version 2
Профиль формата: Main@Main
Параметр BVOP формата: Да
Параметр матрицы формата: По умолчанию
Параметры GOP формата: M=3, N=12
Вид битрейта: Переменный
Битрейт: 4383 Кбит/сек
Номинальный битрейт: 7000 Кбит/сек
Ширина: 720 пикс.
Высота: 576 пикс.
Соотношение сторон: 4:3
Частота кадров: 25,000 кадр/сек
Стандарт вещания: PAL
Цветовое пространство: YUV
Подвыборка цветности: 4:2:0
Битовая глубина: 8 бит
Тип развёртки: Чересстрочная
Порядок развёртки: Верхнее поле первое
Метод сжатия: С потерями
Бит/(Пиксели*Кадры): 0.423
Размер потока: 743 Мбайт (73%)

Аудио
Идентификатор: 160 (0xA0)
Формат: PCM
Параметр Endianness формата: Big
Параметр Sign формата: Signed
Режим смешивания: DVD-Video
Вид битрейта: Постоянный
Битрейт: 1536 Кбит/сек
Канал(ы): 2 канала(ов)
Расположение каналов: Front: L R
Частота: 48,0 КГц
Битовая глубина: 16 бит
Задержка видео: -573 мс.
Размер потока: 260 Мбайт (25%)











Поделиться:



Вернуться к началу
 Профиль Отправить личное сообщение  
 
   Похожие торренты   Автор   Торрент   Размер 
В этой теме нет новых непрочитанных сообщений. Грязная работа / Dirty Job: Complotto Carnale / Reglements De Comptes (2008) DVD5

zorgi

40 | 38

3.88 ГБ

В этой теме нет новых непрочитанных сообщений. Обкуренные / The Stoned Age [Комедия, музыка, 1994] WEB-DLRip-AVC, Mvo

salma3

2 | 0

1.66 ГБ

В этой теме нет новых непрочитанных сообщений. Белые ночи / White Nights [драма, музыка, 1985] BDRemux 1080p, Mvo

salma3

0 | 0

29.41 ГБ

В этой теме нет новых непрочитанных сообщений. Дом Культуры с Дмитрием Куликовым / Юлия Чичерина [2022, Документальный, интервью, музыка, WEBRip]

zorgi

0 | 0

653.29 МБ

В этой теме нет новых непрочитанных сообщений. То, что ты делаешь / That Thing You Do! [драма, комедия, музыка, 1996] BDRip 1080p, Avo [Расширенная версия]

salma3

0 | 0

23.56 ГБ

В этой теме нет новых непрочитанных сообщений. Грязные танцы / Dirty Dancing [драма, мелодрама, музыка, 1987] BDRip 1080p, Mvo [Remastered]

zorgi

0 | 0

8.43 ГБ

В этой теме нет новых непрочитанных сообщений. Сестричка, действуй 2 / Sister Act 2: Back in the Habit [комедия, семейный, музыка, 1993] BDRip-HEVC 1080p, Mvo

salma3

4 | 1

8.25 ГБ


Начать новую тему Ответить на тему  [ 1 сообщение ] 




Для Мосгорсуда, Роскомнадзора и рекламодателей:: rstracker[собака]yandex.ru
cron
cron