Торрент файл
скачать торрент магнет ссылка Добавлен: 08 янв 2012, 04:21
Размер: 3.78 ГБ
Сидеров: 1
Личеров: 10
Автор

СообщениеДобавлено: 08 янв 2012, 04:21 

Не в сети
Супермодератор
Аватара пользователя
Дата регистрации:
22 май 2010, 11:03
Возраст: 31
Спасибо: 7509 / 13
Сообщения: 49940
VA - Лучшее от ELLO Vol.10

Формат: DVD5, DVD Video, MPEG2, AC3
Песня: Лучшее от ELLO Vol.10
Жанр: Pop, R'n'B
Продолжительность: 02:03:01
Год выпуска: 2011

Видео: 720х576 (PAL 4:3), 25 fps, MPEG-2, ~3830 kbps avg, 0.369 bit/pixel
Аудио: 48 kHz, AC-3 , 2 ch, 192.00 kbps avg

Доп. информация: Материал взят с канала Ello - который представляет в свою очередь новинки как российской так и зарубежной попсы. Отличный профессиональный музыкальный канал. Здесь можно увидеть как звезд так и совершенно молодых исполнителей. Предлагаю Вашему вниманию ДЕСЯТУЮ подбороку с этого канала.

01 Лолита feat Quest Pistols - Ты похудела
02 Эд Шульжевский - Синий вечер
03 В. Брежнева — Любовь в большом городе
04 Винтаж – Деревья
05 5sta Family - Тук тук
06 Tokio - Мы будем вместе
07 В. Чехов - Фотография любви
08 Р. Нигматулин – Sunrise
09 Г. Лепс - Замерзает солнце
10 T-killah & Настя Кочеткова - Над землей
11 Паша Воля feat. Ёлка – Мальчик
12 МакSим – Осколки
13 Н. Королева - Любовь без правил
14 Пачуля – Привет
15 Бьянка- Без сомнения
16 Русалина - Сохрани в сердце
17 Д. Билан – Задыхаюсь
18 Elvira T - Все решено
19 М. Брунский - Там где нет тебя
20 М. Гойя - Любовь Марихуана
21 Lil Pop & Lala by Babes feat Алекса - Любовь-война
22 Елка - Девочка в Пежо
23 Мария - Красивая пара
24 Денис Майданов – Пуля
25 И. Березовский – Утро
26 Д. Суворова – Автобус
27 Инфинити - Слёзы вода
28 Sahar – Берега
29 Серебро - Song #1 (Русская Версия)
30 Чи-Ли - Мы не ангелы
31 И. Нельсон - Теплое солнце
32 Диверсанты – Пополам

Общее
Формат: MPEG-PS
Общий поток: 4104 Кбит/сек

Видео
Идентификатор: 224 (0xE0)
Формат: MPEG Video
Версия формата: Version 2
Профиль формата: Main@Main
Параметр BVOP формата: Да
Параметр матрицы формата: По умолчанию
Параметры GOP формата: M=3, N=15
Вид битрейта: Переменный
Битрейт: 3830 Кбит/сек
Номинальный битрейт: 9008 Кбит/сек
Ширина: 720 пикс.
Высота: 576 пикс.
Соотношение сторон: 4:3
Частота кадров: 25,000 кадр/сек
Стандарт вещания: PAL
Цветовое пространство: YUV
Подвыборка цветности: 4:2:0
Битовая глубина: 8 бит
Тип развёртки: Прогрессивная
Метод сжатия: С потерями
Бит/(Пиксели*Кадры): 0.369
Размер потока: 956 Мбайт (93%)

Аудио
Идентификатор: 128 (0x80)
Формат: AC-3
Формат/Информация: Audio Coding 3
Расширение режима: CM (complete main)
Вид битрейта: Постоянный
Битрейт: 192 Кбит/сек
Канал(ы): 2 канала(ов)
Расположение каналов: Front: L R
Частота: 48,0 КГц
Битовая глубина: 16 бит
Метод сжатия: С потерями
Размер потока: 47,9 Мбайт (5%)













Поделиться:




реклама партнёра


Вернуться к началу
 Профиль Отправить личное сообщение  
 
   Похожие торренты   Автор   Торрент   Размер 
В этой теме нет новых непрочитанных сообщений. Освенцим / Auschwitz [драма, 2011] DVD5, Mvo+Sub [лицензия]

Dracon

57 | 7

3.77 ГБ

В этой теме нет новых непрочитанных сообщений. Уловка .44 / Catch .44 [триллер, драма, криминал, 2011] DVD5, Mvo+Sub

salma3

10 | 8

4.37 ГБ

В этой теме нет новых непрочитанных сообщений. Многоэтажка / Небоскреб смерти / Tower Block [триллер, 2011] DVD5, Mvo+Sub

salma3

9 | 7

4.32 ГБ

В этой теме нет новых непрочитанных сообщений. Маленький убийца / Little Murder [триллер, драма, 2011] DVD5, Mvo [лицензия]

salma3

0 | 2

3.93 ГБ

В этой теме нет новых непрочитанных сообщений. Военные игры / War Games: At the End of the Day [Триллер, боевик, ужасы, 2011] DVD5, Mvo

salma3

15 | 11

4.35 ГБ

В этой теме нет новых непрочитанных сообщений. 12 Рождественских желаний / 12 Wishes of Christmas [фэнтези, комедия, 2011] DVD5, Mvo [лицензия]

salma3

48 | 7

3.92 ГБ

В этой теме нет новых непрочитанных сообщений. Последний час Земли / Earth's Final Hours [Фантастика, 2011] DVD5, Mvo [Лицензия]

salma3

41 | 14

4.01 ГБ


Начать новую тему Ответить на тему  [ 1 сообщение ] 




Для Мосгорсуда, Роскомнадзора и рекламодателей:: mosgorsud-torrent[собачка]yandex.ru