Торрент файл
скачать торрент магнет ссылка Добавлен: 08 янв 2012, 04:19
Размер: 7.73 ГБ
Сидеров: 11
Личеров: 13
Автор

СообщениеДобавлено: 08 янв 2012, 04:19 

Не в сети
Супермодератор
Аватара пользователя
Дата регистрации:
22 май 2010, 11:03
Возраст: 31
Спасибо: 7509 / 13
Сообщения: 49940
Bon Jovi - Crush Tour 2000

Формат: DVD9, DVD Video, MPEG2, AC3
Песня: Crush Tour 2000
Жанр: Rock
Продолжительность: 02:40:33
Год выпуска: 2006
Видео: MPEG 2 VIDEO, 720*576( PAL 2.35:1), 25.00 fps,~ 6695 kbps avg, 0.646 bit/pixel
Аудио #1: 48,0 khz, AC-3, 2 ch, 192 kbps avg
Аудио #2: 48.0 khz, AC -3, 6 ch, 448 kbps avg
Доп. информация: Концерт в Цюрихе, Швейцария. 30 августа 2000 года. Backstage, фотогалерея, дискография, видеоклипы It's My Life, Say It Isn't So.
01. Intro
02. Livin' on a Prayer
03. You Give Love a Bad Name
04. Captain Crash & the Beauty Queen from Mars
05. Say It Isn't So
06. One Wild Night
07. Born to Be My Baby
08. It's My Life
09. Bed of Roses
10. Two Story Town
11. Just Older
12. Runaway
13. Lay Your Hands on Me
14. I'll Sleep When I'm Dead
15. Bad Medicine
16. Wanted Dead or Alive
17. I'll Be There For You
18. Next 100 Years
19. Someday I'll be Saturday Night
20. Keep the Faith
21. Thank You For Loving Me
[b]
Title: Bon Jovi - Crush Tour
Size: 7.73 Gb ( 8 104 824,00 KBytes ) - DVD-9
Enabled regions: 1, 2, 3, 4, 5, 6, 7, 8

VTS_01 :
Play Length: 02:02:20+00:00:00
Video: PAL 16:9 (720x576) VBR, Auto Letterboxed
Audio:
English, AC3, 2/0 (L,R) ch, 192 kbps, Delay 0 mSec
English, AC3, 3/2 (L,C,R,SL,SR)+LFE ch, 448 kbps, Delay 0 mSec

VTS_02 :
Play Length: 00:00:00+00:00:18+00:04:31+00:00:00+00:03:56+00:00:00+00:27:01+00:00:00+00:02:27+00:00:00
Video: PAL 4:3 (720x576) VBR
Audio:
English (Dolby AC3, 2 ch)

* Menus Information *

VIDEO_TS Menu
Video:
PAL 4:3 (720x576) VBR
English Language Unit :
Title Menu

VTS_01 Menu
Video:
PAL 4:3 (720x576) VBR
Audio:
Not specified (Dolby AC3, 2 ch)
English Language Unit :
Root Menu
Subpicture Menu
Chapter (PTT) Menu

VTS_02 Menu
Video:
PAL 4:3 (720x576) VBR
English Language Unit :
Root Menu
Общее
Полное имя: D:\Torrents\Download\Bon Jovi - Crush Tour\VTS_01_1.VOB
Формат: MPEG-PS
Размер файла: 1024 Мбайт
Продолжительность: 19 м.
Общий поток: 7484 Кбит/сек

Видео
Идентификатор: 224 (0xE0)
Формат: MPEG Video
Версия формата: Version 2
Профиль формата: Main@Main
Параметр BVOP формата: Да
Параметр матрицы формата: По умолчанию
Параметры GOP формата: M=2, N=15
Продолжительность: 19 м.
Вид битрейта: Переменный
Битрейт: 6695 Кбит/сек
Номинальный битрейт: 9000 Кбит/сек
Ширина: 720 пикс.
Высота: 576 пикс.
Соотношение сторон: 2,35:1
Частота кадров: 25,000 кадр/сек
Стандарт вещания: PAL
Цветовое пространство: YUV
Подвыборка цветности: 4:2:0
Битовая глубина: 8 бит
Тип развёртки: Чересстрочная
Порядок развёртки: Верхнее поле первое
Метод сжатия: С потерями
Бит/(Пиксели*Кадры): 0.646
Размер потока: 916 Мбайт (89%)

Аудио #1
Идентификатор: 128 (0x80)
Формат: AC-3
Формат/Информация: Audio Coding 3
Расширение режима: CM (complete main)
Продолжительность: 19 м.
Вид битрейта: Постоянный
Битрейт: 192 Кбит/сек
Каналы: 2 канала
Расположение каналов: Front: L R
Частота: 48,0 КГц
Битовая глубина: 16 бит
Метод сжатия: С потерями
Размер потока: 26,3 Мбайт (3%)

Аудио #2
Идентификатор: 129 (0x81)
Формат: AC-3
Формат/Информация: Audio Coding 3
Расширение режима: CM (complete main)
Продолжительность: 19 м.
Вид битрейта: Постоянный
Битрейт: 448 Кбит/сек
Каналы: 6 каналов
Расположение каналов: Front: L C R, Side: L R, LFE
Частота: 48,0 КГц
Битовая глубина: 16 бит
Метод сжатия: С потерями
Размер потока: 61,3 Мбайт (6%)

Меню











[b]Поделиться:




реклама партнёра


Вернуться к началу
 Профиль Отправить личное сообщение  
 
   Похожие торренты   Автор   Торрент   Размер 
В этой теме нет новых непрочитанных сообщений. Bon Jovi - All Gold [2000, Rock, Hard Rock, MP3]

PriZraK

7 | 1

184.98 МБ

В этой теме нет новых непрочитанных сообщений. Bon Jovi - Blaze Of Hits (Limited Edition) [2011, Hard Rock, Pop Rock, MP3]

PriZraK

7 | 1

220.57 МБ

В этой теме нет новых непрочитанных сообщений. Izz - Crush Of Night [2012, Symphonic Progressive Rock, MP3]

PriZraK

0 | 1

143.56 МБ

В этой теме нет новых непрочитанных сообщений. Jim Crean - Velvet Crush [2011, Melodic Hard Rock,AOR, MP3]

PriZraK

0 | 1

105.69 МБ

В этой теме нет новых непрочитанных сообщений. Crush 40 - Johnny Gioeli & Jun Senoue [2003, Hard Rock, MP3]

PriZraK

0 | 1

68.08 МБ

В этой теме нет новых непрочитанных сообщений. Bon Jovi - What About Now (Deluxe Edition) [2013, Hard Rock, MP3]

PriZraK

5 | 1

157.38 МБ

В этой теме нет новых непрочитанных сообщений. Bon Jovi - New Jersey (Deluxe Edition) [2014, Hard Rock, Heavy Metal, MP3]

PriZraK

7 | 2

314.58 МБ


Начать новую тему Ответить на тему  [ 1 сообщение ] 




Для Мосгорсуда, Роскомнадзора и рекламодателей:: mosgorsud-torrent[собачка]yandex.ru