Торрент файл
скачать торрент магнет ссылка Добавлен: 08 янв 2012, 04:19
Размер: 4.3 ГБ
Сидеров: 3
Личеров: 8
Автор

СообщениеДобавлено: 08 янв 2012, 04:19 

Не в сети
Супермодератор
Аватара пользователя
Дата регистрации:
22 май 2010, 11:03
Возраст: 31
Спасибо: 7518 / 13
Сообщения: 49940
Dee Snider (Twisted Sister) - Deevision


Формат: DVD5, DVD Video, MPEG2, AC3/PCM
Песня: Deevision
Жанр: Glam Rock
Продолжительность: 01:47:14
Год выпуска: 2002
Видео: MPEG 2 VIDEO, 720*480, (NTSC 4:3), 29.97 fps, ~2873 kbps avg, 0,277 bit/pixel
Аудио #1: 48,0 khz, AC 3, 6 ch, 448 kbps avg
Аудио #2: 48.0 khz, PCM, 2 ch, 1536 kbps avg
Доп. информация:
01.Opening Sequence
02.What You Don't Know (Sure Can Hurt You) (live)
03. The SMF Show (interviews)
04. The Kids Are Back (live)
05. Stay Hungry (live)
06. More On SMF (interviews)
07. Destroyer (live)
08. SMF Project... Thoughts About Dee (interviews)
09. I Am (I'm Me) (live)
10. Twisted Stories...Dee's Favorites (interviews)
11. Under The Blade (live)
12. Dee Stories... (interviews)
13. I Wanna Rock (live)
14. Road Stories...(interviews)
15. You Can't Stop Rock'n'Roll (live)
16. Dee' Audience Rap (cool stuff)
17. Medley:
Come Out And Play, The Pack, I Believe In Rock'n'Roll, Be Chrool To Your Scuel (live)
18. PMRC Controversy (interviews)
19. We're Not Gonna Take It (live)
20. Dealing With Fame (interviews)
21. The Price (live)
22. Changing Drummers...(interviews)
23. Wake Up (The Sleeping Giant) (live)
24. Desperado, Widowmaker...(interviews)
25. Life After Rock & Roll ?(interviews)
26. S.M.F. (live)
27. Shoot 'Em Down (live)
28. Is There a Twisted Future ?(interviews)
29. Twisted Sister Autograph Sighning (cool stuff)
30. Outakes/credits (cool stuff0

[b]Bonus Clips:


We're Gonna Make It
Burn In Hell
Strangeland II Tease
Title: Dee Snider - Deevision
Size: 4.30 Gb ( 4 507 496,00 KBytes ) - DVD-5
Enabled regions: 1, 2, 3, 4, 5, 6, 7, 8

VTS_01 :
Play Length: 00:00:10
Video: NTSC 4:3 (720x480) VBR
Audio:
Not specified (Dolby AC3, 5 ch)
Not specified (LinearPCM, 2 ch)

VTS_02 :
Play Length: 00:00:10
Video: NTSC 4:3 (720x480) VBR
Audio:
Not specified (LinearPCM, 2 ch)

VTS_03 :
Play Length: 00:00:10
Video: NTSC 4:3 (720x480) VBR

VTS_04 :
Play Length: 00:00:10
Video: NTSC 4:3 (720x480) VBR
Audio:
Not specified (LinearPCM, 2 ch)

VTS_05 :
Play Length: 00:00:00
Video: NTSC 4:3 (720x480) VBR
Audio:
Not specified (LinearPCM, 2 ch)

VTS_06 :
Play Length: 00:00:00
Video: NTSC 4:3 (720x480) VBR
Audio:
Not specified (LinearPCM, 2 ch)

VTS_07 :
Play Length: 00:00:00
Video: NTSC 4:3 (720x480) VBR
Audio:
Not specified (LinearPCM, 2 ch)

VTS_08 :
Play Length: 00:00:30
Video: NTSC 4:3 (720x480) VBR
Audio:
Not specified (Dolby AC3, 5 ch)
Not specified (LinearPCM, 2 ch)

VTS_09 :
Play Length: 00:00:50
Video: NTSC 4:3 (720x480) VBR
Audio:
Not specified (Dolby AC3, 5 ch)
Not specified (LinearPCM, 2 ch)

VTS_10 :
Play Length: 00:00:10
Video: NTSC 4:3 (720x480) VBR
Audio:
Not specified (Dolby AC3, 5 ch)
Not specified (LinearPCM, 2 ch)

VTS_11 :
Play Length: 01:47:14
Video: NTSC 4:3 (720x480) VBR
Audio:
Not specified, AC3, 3/2 (L,C,R,SL,SR)+LFE ch, 448 kbps, Delay 0 mSec
Not specified, LPCM, Delay = 0 mSec

VTS_12 :
Play Length: 00:00:00
Video: NTSC 4:3 (720x480) VBR
Audio:
Not specified (LinearPCM, 2 ch)
Общее
Полное имя: D:\Torrents\Download\Dee Snider - Deevision\VTS_11_1.VOB
Формат: MPEG-PS
Размер файла: 1024 Мбайт
Продолжительность: 28 м.
Общий поток: 4956 Кбит/сек

Видео
Идентификатор: 224 (0xE0)
Формат: MPEG Video
Версия формата: Version 2
Профиль формата: Main@Main
Параметр BVOP формата: Да
Параметр матрицы формата: По умолчанию
Параметры GOP формата: M=3, N=15
Продолжительность: 28 м.
Вид битрейта: Переменный
Битрейт: 2873 Кбит/сек
Номинальный битрейт: 5700 Кбит/сек
Ширина: 720 пикс.
Высота: 480 пикс.
Соотношение сторон: 4:3
Частота кадров: 29,970 кадр/сек
Стандарт вещания: NTSC
Цветовое пространство: YUV
Подвыборка цветности: 4:2:0
Битовая глубина: 8 бит
Тип развёртки: Чересстрочная
Порядок развёртки: Нижнее поле первое
Метод сжатия: С потерями
Бит/(Пиксели*Кадры): 0.277
Размер потока: 593 Мбайт (58%)

Аудио #1
Идентификатор: 128 (0x80)
Формат: AC-3
Формат/Информация: Audio Coding 3
Расширение режима: CM (complete main)
Продолжительность: 28 м.
Вид битрейта: Постоянный
Битрейт: 448 Кбит/сек
Каналы: 6 каналов
Расположение каналов: Front: L C R, Side: L R, LFE
Частота: 48,0 КГц
Битовая глубина: 16 бит
Метод сжатия: С потерями
Размер потока: 92,5 Мбайт (9%)

Аудио #2
Идентификатор: 161 (0xA1)
Формат: PCM
Параметр Endianness формата: Big
Параметр Sign формата: Signed
Режим смешивания: DVD-Video
Продолжительность: 28 м.
Вид битрейта: Постоянный
Битрейт: 1536 Кбит/сек
Каналы: 2 канала
Расположение каналов: Front: L R
Частота: 48,0 КГц
Битовая глубина: 16 бит
Размер потока: 317 Мбайт (31%)

Меню










Поделиться:




реклама партнёра


Вернуться к началу
 Профиль Отправить личное сообщение  
 
   Похожие торренты   Автор   Торрент   Размер 
В этой теме нет новых непрочитанных сообщений. Sister - Disguised Vultures [2014, Glam Metal, MP3]

PriZraK

7 | 2

94.69 МБ

В этой теме нет новых непрочитанных сообщений. White Sister - White Sister (Rock Candy Remaster) [2013, Pomp Rock, MP3]

PriZraK

0 | 2

103.2 МБ

В этой теме нет новых непрочитанных сообщений. Julliet - Passion [2002, Glam Hard Rock, MP3]

PriZraK

0 | 1

105.95 МБ

В этой теме нет новых непрочитанных сообщений. VA - Стальные нервы (Glam Metal and Hair Rock Classics) [2013, Glam Metal, Hair Rock, Hard Rock, Rock, MP3]

PriZraK

0 | 1

589.04 МБ

В этой теме нет новых непрочитанных сообщений. My Darkest Days - Sick and Twisted Affair [2012, Modern Rock, Alt. Rock, MP3]

PriZraK

0 | 1

99.57 МБ

В этой теме нет новых непрочитанных сообщений. VA - Glam Rock Anthology (3CD) [2012, Glam Rock, MP3]

PriZraK

0 | 1

363.81 МБ

В этой теме нет новых непрочитанных сообщений. Alice Cooper - Collection (ard Rock, shock rock, garage rock, glam rock. 1969-2012) FLAC

Aleksandr.ru

16 | 25

27.19 ГБ


Начать новую тему Ответить на тему  [ 1 сообщение ] 




Для Мосгорсуда, Роскомнадзора и рекламодателей:: mosgorsud-torrent[собачка]yandex.ru