Торрент файл
скачать торрент магнет ссылка Добавлен: 08 янв 2012, 04:18
Размер: 3.93 ГБ
Сидеров: 11
Личеров: 8
Автор

СообщениеДобавлено: 08 янв 2012, 04:18 

Не в сети
Супермодератор
Аватара пользователя
Дата регистрации:
22 май 2010, 11:03
Возраст: 37
Спасибо: 7939 / 13
Сообщения: 49828
VA - Дискотека 80-х. Песни моей мамы

Формат: DVD5, DVD Video, MPEG2, AC3
Песня: Дискотека 80-х. Песни моей мамы
Жанр: Disco, Pop
Продолжительность: 02:13:07
Год выпуска: 1980-1994

Видео: 720х576 (PAL 4:3), 25 fps, MPEG-2, ~3227 kbps avg, 0.311 bit/pixel
Аудио: 48 kHz, AC-3 , 2 ch, 192.00 kbps avg

Доп. информация: Перебирая в памяти остатки прошлого - наши мамы видят смутные очертания и это не удивительно т.к. прошло достаточно много времени с тех пор - когда они были молодыми, а человеческая память как не печально но имеет свойство стираться. В этом альбоме я попробовал собрать те песни, которые помогут создать картину событий прошлого и вспомнить - как они проводили свой досуг на дискотеке 80-х в великой стране которой больше нет - в СССР.
P.S. Диск собран с различных ресурсов, качество записи VHSRip
001 Комбинация - Бухгалтер (1988)
002 Секрет - Привет (1986)
003 В. Маркин - Сиреневый туман (1989)
004 М. Боярский - Зеленоглазое такси (1989)
005 А. Вески - Позади крутой поворот (1984)
006 Ласковый май - Белые розы (1988)
007 Веселые ребята - Бологое (1988)
008 А. Глызин - Зимний сад (1990)
009 С. Разина - Мой ветер (1989)
010 Р. Жуков - Я люблю вас, девочки (1989)
011 В. Леонтьев - Ярмарки-краски (1982)
012 Фристайл - Желтые розы (1989)
013 Цветы - Богатырская сила (1980)
014 С. Ротару - Луна-луна (1986)
015 Ариэль - Порушка Параня (1983)
016 Сталкер - Не плачь, Алиса (1991)
017 Комиссар - Ты уйдешь (1994)
018 М. Журавлёва - Алые гвоздики (1990)
019 В. Малежик - Мозаика (1993)
020 М. Муромов - Яблоки на снегу (1987)
021 Земляне - Каскадёры (1982)
022 В. Добрынин - Не сыпь мне соль на рану (1989)
023 Форум - Белая ночь (1984)
024 К. Кельми - Ночное рандеву (1988)
025 Машина времени - Флюгер (1987)
026 Ю. Антонов - Мечта (1981)
027 К. Никольский - Я сам из тех (1982)
028 Е. Белоусов - Девочка моя синеглазая (1988)
029 И. Суручану - Незабудка (1989)
030 А. Серов - Мадонна (1988)

Видео
Идентификатор: 224 (0xE0)
Формат: MPEG Video
Версия формата: Version 2
Профиль формата: Main@Main
Параметр BVOP формата: Да
Параметр матрицы формата: По умолчанию
Параметры GOP формата: M=3, N=15
Вид битрейта: Переменный
Битрейт: 3227 Кбит/сек
Номинальный битрейт: 9008 Кбит/сек
Ширина: 720 пикс.
Высота: 576 пикс.
Соотношение сторон: 4:3
Частота кадров: 25,000 кадр/сек
Стандарт вещания: PAL
Цветовое пространство: YUV
Подвыборка цветности: 4:2:0
Битовая глубина: 8 бит
Тип развёртки: Прогрессивная
Метод сжатия: С потерями
Бит/(Пиксели*Кадры): 0.311
Размер потока: 947 Мбайт (93%)

Аудио
Идентификатор: 128 (0x80)
Формат: AC-3
Формат/Информация: Audio Coding 3
Расширение режима: CM (complete main)
Вид битрейта: Постоянный
Битрейт: 192 Кбит/сек
Канал(ы): 2 канала(ов)
Расположение каналов: Front: L R
Частота: 48,0 КГц
Битовая глубина: 16 бит
Метод сжатия: С потерями
Размер потока: 56,4 Мбайт (6%)













Поделиться:



Вернуться к началу
 Профиль Отправить личное сообщение  
 
   Похожие торренты   Автор   Торрент   Размер 
В этой теме нет новых непрочитанных сообщений. Green Day - Dookie [Pop-Punk, 1994] FLAC (image+.cue), lossless

Redscarf

7 | 0

283.46 МБ

В этой теме нет новых непрочитанных сообщений. В моей заднице! / Porn Fidelity's Up My Ass! (2017) WEB-DL

zorgi

56 | 22

3.17 ГБ

В этой теме нет новых непрочитанных сообщений. Не говорите об этом моей дочери / Ne Le Dites Pas A Ma Fille (2007) DVDRip

zorgi

17 | 4

699.3 МБ

В этой теме нет новых непрочитанных сообщений. Дуплет для моей жены со мной 4 / DP My Wife With Me 4 (2014) WEB-DL 1080p

zorgi

42 | 15

5.85 ГБ

В этой теме нет новых непрочитанных сообщений. Chanel Preston - Дуплет для моей жены со мной / DP My Wife With Me (2013) SiteRip

zorgi

16 | 22

460.25 МБ

В этой теме нет новых непрочитанных сообщений. Krissy Lynn - Дуплет для моей жены со мной / DP My Wife With Me (2013) WEB-DLRip

zorgi

42 | 22

477.85 МБ

В этой теме нет новых непрочитанных сообщений. India Summer - Дуплет для моей жены со мной 2 / DP My Wife With Me 2 (2013) WEB-DLRip

zorgi

42 | 3

588.64 МБ


Начать новую тему Ответить на тему  [ 1 сообщение ] 




Для Мосгорсуда, Роскомнадзора и рекламодателей:: rstracker[собака]yandex.ru
cron