Торрент файл
скачать торрент магнет ссылка Добавлен: 08 янв 2012, 04:17
Размер: 3.03 ГБ
Сидеров: 8
Личеров: 7
Автор

СообщениеДобавлено: 08 янв 2012, 04:17 

Не в сети
Супермодератор
Аватара пользователя
Дата регистрации:
22 май 2010, 11:03
Возраст: 31
Спасибо: 7508 / 13
Сообщения: 49940
Натали - Первая любовь


Формат: DVD5, DVD Video, MPEG2, AC3
Песня: Первая любовь
Жанр: Рор
Продолжительность: 01:06:19
Год выпуска: 2001

Видео: 720х576 (PAL 4:3), 25 fps, MPEG-2, ~6006 kbps avg, 0.579 bit/pixel
Аудио: 48 kHz, AC-3 , 6 ch (Front: L C R, Side: L R, LFE), 384.00 kbps avg

Доп. информация: Популярность к Натали пришла в 1998 году вместе с песней «Ветер с моря дул» и одноименным альбомом. Эта песня по итогам 1998 года вошла в пятёрку наиболее популярных в то время и стала визитной карточкой певицы. Альбом был выпущен рекордным тиражом.
В 1999 году вышел в свет новый альбом «Считалочка». На три песни из альбома, включая заглавную, были сняты видеоклипы.
В сентябре 2000 года Натали выпустила альбом «Первая любовь». В этом же году у певицы появился новый хит — песня «Черепашка». На данный момент Натали активно гастролирует по России и Ближнему Зарубежью. В 2008 году она приняла участие в составе «команды России» на шоу «Суперстар-2008».

P.S. Спасибо Вован н..... за предоставленный диск.
01.Интервью за кулисами
02.Он с моря дул
03.Отбой
04.Считалочка
05.Вечер - бард
06.Сегоднячко
07.Радужный мир
08.Я тебе возвращаю ключи
09.Весна
10.Не стерпелось-не слюбилось
11.Улыбочка
12.Первая любовь
13.Черепашка
14.Провинциальная девчонка
15.Новогодние игрушки
16.Конфетка
17.Мир без тебя
18.Первая любовь 2

Общее
Формат: MPEG-PS
Общий поток: 6520 Кбит/сек

Видео
Идентификатор: 224 (0xE0)
Формат: MPEG Video
Версия формата: Version 2
Профиль формата: Main@Main
Параметр BVOP формата: Да
Параметр матрицы формата: По умолчанию
Параметры GOP формата: M=3, N=15
Вид битрейта: Переменный
Битрейт: 6006 Кбит/сек
Номинальный битрейт: 8000 Кбит/сек
Ширина: 720 пикс.
Высота: 576 пикс.
Соотношение сторон: 4:3
Частота кадров: 25,000 кадр/сек
Стандарт вещания: PAL
Цветовое пространство: YUV
Подвыборка цветности: 4:2:0
Битовая глубина: 8 бит
Тип развёртки: Чересстрочная
Порядок развёртки: Верхнее поле первое
Метод сжатия: С потерями
Бит/(Пиксели*Кадры): 0.579
Размер потока: 829 Мбайт (92%)

Аудио
Идентификатор: 128 (0x80)
Формат: AC-3
Формат/Информация: Audio Coding 3
Расширение режима: CM (complete main)
Вид битрейта: Постоянный
Битрейт: 384 Кбит/сек
Канал(ы): 6 канала(ов)
Расположение каналов: Front: L C R, Side: L R, LFE
Частота: 48,0 КГц
Битовая глубина: 16 бит
Метод сжатия: С потерями
Размер потока: 53,0 Мбайт (6%)











Поделиться:




реклама партнёра


Вернуться к началу
 Профиль Отправить личное сообщение  
 
   Похожие торренты   Автор   Торрент   Размер 
В этой теме нет новых непрочитанных сообщений. Натали Натали миньетик [2014 г., Amateur, CamRip]

Dievas

4 | 5

38.27 МБ

В этой теме нет новых непрочитанных сообщений. Первая любовь / 1er amour [драма, 2013] DVDRip, Avo

salma3

89 | 14

1.38 ГБ

В этой теме нет новых непрочитанных сообщений. Отхончик. Первая любовь [комедия, 2013] WEBRip

Dracon

72 | 5

703.21 МБ

В этой теме нет новых непрочитанных сообщений. Первая любовь [01-60 из 60] (Александр Захаренков, Наталья Галузо) [Мелодрама, 2013] SATRip

Dracon

72 | 20

32.22 ГБ

В этой теме нет новых непрочитанных сообщений. Первая любовь [01-46 из 60] (Александр Захаренков, Наталья Галузо) [Мелодрама, 2013] SATRip

Dracon

0 | 0

24.7 ГБ

В этой теме нет новых непрочитанных сообщений. Первая любовь [01-49 из 60] (Александр Захаренков, Наталья Галузо) [Мелодрама, 2013] SATRip

Dracon

0 | 0

25.71 ГБ

В этой теме нет новых непрочитанных сообщений. Первая любовь [01-58 из 60] (Александр Захаренков, Наталья Галузо) [Мелодрама, 2013] SATRip

Dracon

4 | 2

31.15 ГБ


Начать новую тему Ответить на тему  [ 1 сообщение ] 




Для Мосгорсуда, Роскомнадзора и рекламодателей:: mosgorsud-torrent[собачка]yandex.ru