Торрент файл
скачать торрент магнет ссылка Добавлен: 08 янв 2012, 04:14
Размер: 4.16 ГБ
Сидеров: 2
Личеров: 12
Автор

СообщениеДобавлено: 08 янв 2012, 04:14 

Не в сети
Супермодератор
Аватара пользователя
Дата регистрации:
22 май 2010, 11:03
Возраст: 31
Спасибо: 7509 / 13
Сообщения: 49940
Def Leppard - Live In Japan - Euphoria Tour


Формат: DVD5, DVD Video, MPEG2, AC3
Песня: Live In Japan - Euphoria Tour
Жанр: Rock
Продолжительность: 01:49:18
Год выпуска: 1999
Видео: MPEG 2 VIDEO, 720*480, (NTSC 4:3), 29.97 fps, ~5147 kbps avg, 0,497 bit/pixel
Аудио: 48.0 khz, AC-3, 2 ch, 192 kbps avg
Доп. информация: Концерт в Токио, Япония. 2 октября 1999 года.
    Состав
Joe Elliott – lead vocals
Phil Collen – guitars
Vivian Campbell – guitars
Rick Savage – bass
Rick Allen - drums

1. Rock Rock Till You Drop
2. Action
3. Demolition Man
4. Women
5. Make Love Like A Man
6. When Love & Hate Collide
7. Animal
8. Hysteria
9. Foolin'
10. Paper Sun
11. Slang
12. Promises
13. Goodbye
14. Love Bites
15. Armageddon It
16. Photograph
17. Rocket
18. Pour Some Surgar On Me
19. Rock Of Ages
20. Lets Get Rocked
21. Wasted
22. Let It Go

Title: Def Leppard - Live In Japan
Size: 4.16 Gb ( 4 362 960,00 KBytes ) - DVD-5
Enabled regions: 1, 2, 3, 4, 5, 6, 7, 8

VTS_01 :
Play Length: 01:49:18
Video: NTSC 4:3 (720x480) VBR
Audio:
Not specified, AC3, 2/0 (L,R) ch, 192 kbps, Delay -110 mSec


Общее
Полное имя: D:\Torrents\Download\Def Leppard - Live In Japan\VIDEO_TS\VTS_01_1.VOB
Формат: MPEG-PS
Размер файла: 1024 Мбайт
Продолжительность: 26 м.
Общий поток: 5447 Кбит/сек

Видео
Идентификатор: 224 (0xE0)
Формат: MPEG Video
Версия формата: Version 2
Профиль формата: Main@Main
Параметр BVOP формата: Да
Параметр матрицы формата: По умолчанию
Параметры GOP формата: M=3, N=15
Продолжительность: 26 м.
Вид битрейта: Переменный
Битрейт: 5147 Кбит/сек
Номинальный битрейт: 8000 Кбит/сек
Ширина: 720 пикс.
Высота: 480 пикс.
Соотношение сторон: 4:3
Частота кадров: 29,970 кадр/сек
Стандарт вещания: NTSC
Цветовое пространство: YUV
Подвыборка цветности: 4:2:0
Битовая глубина: 8 бит
Тип развёртки: Чересстрочная
Порядок развёртки: Верхнее поле первое
Метод сжатия: С потерями
Бит/(Пиксели*Кадры): 0.497
Размер потока: 968 Мбайт (94%)

Аудио
Идентификатор: 128 (0x80)
Формат: AC-3
Формат/Информация: Audio Coding 3
Расширение режима: CM (complete main)
Продолжительность: 26 м.
Вид битрейта: Постоянный
Битрейт: 192 Кбит/сек
Каналы: 2 канала
Расположение каналов: Front: L R
Частота: 48,0 КГц
Битовая глубина: 16 бит
Метод сжатия: С потерями
Задержка видео: -178 мс.
Размер потока: 36,1 Мбайт (4%)







Поделиться:




реклама партнёра


Вернуться к началу
 Профиль Отправить личное сообщение  
 
   Похожие торренты   Автор   Торрент   Размер 
В этой теме нет новых непрочитанных сообщений. Euphoria - At The Speed Of Light [1999, Melodic Rock, AOR, MP3]

PriZraK

0 | 1

120.76 МБ

В этой теме нет новых непрочитанных сообщений. Def Leppard - Def Leppard (Hard-Rock, 2015) MP3

Aleksandr.ru

3356 | 412

126.28 МБ

В этой теме нет новых непрочитанных сообщений. Cactus - TKO Tokyo. Live In Japan [2014, Hard Rock , Blues Rock, MP3]

PriZraK

1 | 4

253.56 МБ

В этой теме нет новых непрочитанных сообщений. Uriah Heep - Live In Kawasaki Japan [2010, Hard Rock, MP3]

PriZraK

2 | 2

299.28 МБ

В этой теме нет новых непрочитанных сообщений. Peter Gabriel - Back To Front Tour: Live In Geneva 08.10.2013 [2013, Progressive Rock, MP3]

PriZraK

0 | 1

338.38 МБ

В этой теме нет новых непрочитанных сообщений. Def Leppard - Slang [Deluxe Edition] [2CD] (Hard Rock. 2014) Mp3

Aleksandr.ru

63 | 3

291.03 МБ

В этой теме нет новых непрочитанных сообщений. Surfact - Euphoria [2009, Alt.Rock, MP3]

PriZraK

0 | 1

101.39 МБ


Начать новую тему Ответить на тему  [ 1 сообщение ] 




Для Мосгорсуда, Роскомнадзора и рекламодателей:: mosgorsud-torrent[собачка]yandex.ru