Торрент файл
скачать торрент магнет ссылка Добавлен: 08 янв 2012, 04:14
Размер: 4.36 ГБ
Сидеров: 0
Личеров: 7
Автор

СообщениеДобавлено: 08 янв 2012, 04:14 

Не в сети
Супермодератор
Аватара пользователя
Дата регистрации:
22 май 2010, 11:03
Возраст: 32
Спасибо: 7690 / 13
Сообщения: 49871
Dio - Evil Or Divine

Формат: DVD5 (сжатый), DVD Video, MPEG2, AC3
Песня: Evil Or Divine
Жанр: Hard Rock
Продолжительность: 01:38:59
Год выпуска: 2003
Видео: MPEG 2 VIDEO, 720*576( PAL 4:3), 25.00 fps, ~5440 kbps avg, 0,525 bit/pixel
Аудио #1: 48.0 khz, AC 3, 2 ch, 224 kbps avg
Аудио #2: 48.0 khz, AC 3, 6 ch, 448 kbps avg
Доп. информация: Концерт в Нью-Йорке, США. 13 декабря 2002 года.
    Удалил:предостережение, заставку, фотогалерею, доп. материалы, дорогу DTS. Видео сжато на 9 процентов.
    Треклист
1. Killing The Dragon
2. Egypt/Children of the Sea
3. Push
4. Drum Solo
5. Stand Up and Shout
6. Rock and Roll
7. Don't Talk to Strangers
8. Man on the Silver Mountain
9. Guitar Solo
10. Long Love Rock and Roll
11. Lord of the Last Day
12. Fever Dream
13. Holy Diver
14. Heaven and Hell
15. The Last in Line
16. Rainbow in the Dark
17. We Rock
Title: Dio - Evil Or Divine

Size: 4.36 Gb ( 4 571 136,00 KBytes ) - DVD-5
Enabled regions: 1, 2, 3, 4, 5, 6, 7, 8

VTS_01 :
Play Length: 00:00:00+01:38:59+00:00:00
Video: PAL 4:3 (720x576) VBR
Audio:
Not specified, AC3, 2/0 (L,R) ch, 224 kbps, Delay 709 mSec
Not specified, AC3, 3/2 (L,C,R,SL,SR)+LFE ch, 448 kbps, Delay 709 mSec
Not specified,

VTS_02 :
Play Length: 00:00:03+00:00:00+00:00:00
Video: PAL 4:3 (720x576) VBR
Audio:
Not specified (Dolby AC3, 2 ch)

* Menus Information *

VIDEO_TS Menu
Video:
PAL 4:3 (720x576) VBR
English Language Unit :
Title Menu

VTS_01 Menu
Video:
PAL 4:3 (720x576) VBR
Audio:
Not specified (Dolby AC3, 2 ch)
English Language Unit :
Root Menu

VTS_02 Menu
Video:
PAL 4:3 (720x576) VBR
English Language Unit :
Root Menu
Общее
Полное имя: D:\Video\Dio - Evil Or Divine\VIDEO_TS\VTS_01_1.VOB
Формат: MPEG-PS
Размер файла: 1024 Мбайт
Продолжительность: 22 м.
Общий поток: 6236 Кбит/сек

Видео
Идентификатор: 224 (0xE0)
Формат: MPEG Video
Версия формата: Version 2
Профиль формата: Main@Main
Параметр BVOP формата: Да
Параметр матрицы формата: По умолчанию
Продолжительность: 22 м.
Вид битрейта: Постоянный
Битрейт: 5440 Кбит/сек
Ширина: 720 пикс.
Высота: 576 пикс.
Соотношение сторон: 4:3
Частота кадров: 25,000 кадр/сек
Стандарт вещания: PAL
Цветовое пространство: YUV
Подвыборка цветности: 4:2:0
Битовая глубина: 8 бит
Метод сжатия: С потерями
Бит/(Пиксели*Кадры): 0.525
Размер потока: 893 Мбайт (87%)

Аудио #1
Идентификатор: 128 (0x80)
Формат: AC-3
Формат/Информация: Audio Coding 3
Расширение режима: CM (complete main)
Продолжительность: 22 м.
Вид битрейта: Постоянный
Битрейт: 224 Кбит/сек
Каналы: 2 канала
Расположение каналов: Front: L R
Частота: 48,0 КГц
Битовая глубина: 16 бит
Метод сжатия: С потерями
Задержка видео: 710 мс.
Размер потока: 36,8 Мбайт (4%)

Аудио #2
Идентификатор: 129 (0x81)
Формат: AC-3
Формат/Информация: Audio Coding 3
Расширение режима: CM (complete main)
Продолжительность: 22 м.
Вид битрейта: Постоянный
Битрейт: 448 Кбит/сек
Каналы: 6 каналов
Расположение каналов: Front: L C R, Side: L R, LFE
Частота: 48,0 КГц
Битовая глубина: 16 бит
Метод сжатия: С потерями
Задержка видео: 710 мс.
Размер потока: 73,5 Мбайт (7%)

Меню










[b]Поделиться:




реклама партнёра


Вернуться к началу
 Профиль Отправить личное сообщение  
 
   Похожие торренты   Автор   Торрент   Размер 
В этой теме нет новых непрочитанных сообщений. Pride Of Lions - Дискография [Melodic-hard-rock, 2003-2017] ALAC

salma3

4 | 2

3.04 ГБ

В этой теме нет новых непрочитанных сообщений. Pride Of Lions - Дискография [Melodic-hard-rock, 2003-2017] MP3, 320 Kbps

salma3

16 | 11

981.5 МБ

В этой теме нет новых непрочитанных сообщений. Горько! 2 [комедия, 2014] DVD5 [Сжатый]

Dracon

46 | 4

4.36 ГБ

В этой теме нет новых непрочитанных сообщений. Мачо и ботан 2 / 22 Jump Street [комедия, боевик, криминал, 2014] DVD5, Dub+Sub [сжатый]

salma3

51 | 3

4.36 ГБ

В этой теме нет новых непрочитанных сообщений. Сборник - Русский Рок Золотой [2014, Rock, Classic Rock, Soft Rock, Hard Rock, MP3]

Nickolas3435

457 | 26

935.39 МБ

В этой теме нет новых непрочитанных сообщений. Волк с Уолл-стрит / The Wolf of Wall Street [драма, комедия, криминал, биография, 2013] DVD5, Dub+Sub [сжатый]

Dracon

38 | 7

4.36 ГБ

В этой теме нет новых непрочитанных сообщений. Исход: Цари и боги / Exodus: Gods and Kings (Ридли Скотт) [боевик, драма, приключения, 2014] DVD5, Dub+Sub [сжатый]

Dracon

29 | 11

4.37 ГБ


Начать новую тему Ответить на тему  [ 1 сообщение ] 




Для Мосгорсуда, Роскомнадзора и рекламодателей:: mosgorsud-torrent[собачка]yandex.ru