Торрент файл
скачать торрент магнет ссылка Добавлен: 08 янв 2012, 04:13
Размер: 4.11 ГБ
Сидеров: 20
Личеров: 12
Автор

СообщениеДобавлено: 08 янв 2012, 04:13 

Не в сети
Супермодератор
Аватара пользователя
Дата регистрации:
22 май 2010, 11:03
Возраст: 37
Спасибо: 7939 / 13
Сообщения: 49828
Стрелки - Лучшие клипы 2001


Формат: DVD5, DVD Video, MPEG2, AC3
Песня: Лучшие клипы 2001
Жанр: Рор
Продолжительность: 01:20:47
Год выпуска: 1997-2001

Видео: 720х576 (PAL 4:3), 25 fps, MPEG-2, ~6138 kbps avg, 0.592 bit/pixel
Аудио #1: 48 kHz, AC-3 (Dolby Digital 2.0), 2 ch, 448.00 kbps avg
Аудио #2: 48 kHz, AC-3 (Dolby Digital 2.0 VHS), 2 ch, 448.00 kbps avg

Доп. информация: 29 ноября 1997 года на телеканале РТР в программе “А” был впервые показан дебютный клип группы на песню “Мамочка”, этот день можно считать днём рождения группы “Стрелки”. 15 февраля 1998г. появляется первый альбом группы с названием “Стрелки идут вперёд” Общий тираж продаж альбома составил более 700 000 копий МС и около 8 000 CD.
Здесь представлен сборник видеоклипов группы, снятых в период с 1997 по 2001 г.

1. Megamix
2. Солнце за горой
3. Нелюбовь
4. Нет любви
5. Я хорошая
6. Шипы и розы
7. Ты бросил меня
8. Бумеранг
9. С Новым годом!
10. Красавчик
11. Москва
12. Курортный роман
13. Первый учитель
14. На вечеринке
15. Мамочка
16. Ты бросил меня (remix)
17. На вечеринке (remix)
18. На вечеринке (Хит FM)

Общее
Формат: MPEG-PS
Общий поток: 7177 Кбит/сек

Видео
Идентификатор: 224 (0xE0)
Формат: MPEG Video
Версия формата: Version 2
Профиль формата: Main@Main
Параметр BVOP формата: Да
Параметр матрицы формата: По умолчанию
Параметры GOP формата: M=3, N=15
Вид битрейта: Переменный
Битрейт: 6138 Кбит/сек
Номинальный битрейт: 9800 Кбит/сек
Ширина: 720 пикс.
Высота: 576 пикс.
Соотношение сторон: 4:3
Частота кадров: 25,000 кадр/сек
Стандарт вещания: PAL
Цветовое пространство: YUV
Подвыборка цветности: 4:2:0
Битовая глубина: 8 бит
Тип развёртки: Чересстрочная
Порядок развёртки: Верхнее поле первое
Метод сжатия: С потерями
Бит/(Пиксели*Кадры): 0.592
Размер потока: 876 Мбайт (86%)

Аудио #1
Идентификатор: 128 (0x80)
Формат: AC-3
Формат/Информация: Audio Coding 3
Расширение режима: CM (complete main)
Вид битрейта: Постоянный
Битрейт: 448 Кбит/сек
Канал(ы): 2 канала(ов)
Расположение каналов: Front: L R
Частота: 48,0 КГц
Битовая глубина: 16 бит
Метод сжатия: С потерями
Размер потока: 63,9 Мбайт (6%)

Аудио #2
Идентификатор: 129 (0x81)
Формат: AC-3
Формат/Информация: Audio Coding 3
Расширение режима: CM (complete main)
Вид битрейта: Постоянный
Битрейт: 448 Кбит/сек
Канал(ы): 2 канала(ов)
Расположение каналов: Front: L R
Частота: 48,0 КГц
Битовая глубина: 16 бит
Метод сжатия: С потерями
Размер потока: 63,9 Мбайт (6%)











Поделиться:



Вернуться к началу
 Профиль Отправить личное сообщение  
 
   Похожие торренты   Автор   Торрент   Размер 
В этой теме нет новых непрочитанных сообщений. Belladonna - Поклонение заднице 1 / Ass Worship 1 (2001) DVDRip

zorgi

8 | 1

319.33 МБ

В этой теме нет новых непрочитанных сообщений. На связи / On the Line [мелодрама, комедия, 2001] DVDRip, Mvo

salma3

1 | 0

1.37 ГБ

В этой теме нет новых непрочитанных сообщений. Claudia Ricci - Тёмная сторона / Dark Side (2001) DVDRip

zorgi

0 | 0

265.21 МБ

В этой теме нет новых непрочитанных сообщений. Сердцеедки / Heartbreakers [комедия, мелодрама, криминал, 2001] BDRip 720p, Dub

salma3

0 | 0

11.43 ГБ

В этой теме нет новых непрочитанных сообщений. Миленькие штучки / Les Jolies Choses [драма, 2001] DVDRip, Mvo

salma3

0 | 0

1.46 ГБ

В этой теме нет новых непрочитанных сообщений. Кокаин / Blow [драма, криминал, биография, 2001] BDRip-HEVC 1080p, Dub

salma3

7 | 0

12.21 ГБ

В этой теме нет новых непрочитанных сообщений. Миленькие штучки / Les Jolies Choses [драма, 2001] DVDRip-AVC, Mvo

salma3

0 | 0

1.46 ГБ


Начать новую тему Ответить на тему  [ 1 сообщение ] 




Для Мосгорсуда, Роскомнадзора и рекламодателей:: rstracker[собака]yandex.ru
cron