Торрент файл
скачать торрент магнет ссылка Добавлен: 08 янв 2012, 04:12
Размер: 3.89 ГБ
Сидеров: 7
Личеров: 7
Автор

СообщениеДобавлено: 08 янв 2012, 04:12 

Не в сети
Супермодератор
Аватара пользователя
Дата регистрации:
22 май 2010, 11:03
Возраст: 32
Спасибо: 7690 / 13
Сообщения: 49871
VA - Дискотека 80-х. Песни моей мамы Vol.2


Формат: DVD5, DVD Video, MPEG2, AC3
Песня: Дискотека 80-х. Песни моей мамы Vol.2
Жанр: Disco, Pop
Продолжительность: 01:49:57
Год выпуска: 1981-1994

Видео: 720х576 (PAL 4:3), 25 fps, MPEG-2, ~4736 kbps avg, 0.457 bit/pixel
Аудио: 48 kHz, AC-3 , 2 ch, 192.00 kbps avg

Доп. информация: Во второй альбом собраны те песни, которые помогут создать картину событий прошлого и вспомнить - как наши мамы проводили свой досуг на дискотеке 80-х в великой стране которой больше нет - в СССР.
001 Сергей Минаев - Вояж (1989)
002 Фристайл - Метелица (1991)
003 А. Вески - Остров любви (1982)
004 Ласковый май - Ну вот и все (1989)
005 В. Малежик - 200 лет(1990)
006 Электроклуб - Кони в яблоках (1988)
007 Самоцветы - Али-Баба (1986)
008 И. Скляр - Комарово (1985)
009 В. Добрынин - Синий туман (1988)
010 Ариэль - В краю магнолий (1983)
011 Воскресенье - По дороге разочарований (1983)
012 Земляне – Трава у дома (1983)
013 А. Глызин -Ты не ангел (1990)
014 ВИА Верасы - Я у бабушки живу (1981)
015 Веселые ребята - Бродячие артисты (1985)
016 Комбинация - Вишневая девятка (1990)
017 В. Маркин - Я готов целовать песок (1986)
018 С. Ротару – Лаванда (1986)
019 И. Саруханов - Дорогие мои старики (1988)
020 П. Смеян – Непогода (1984)
021 С. Беликов - Живи родник (1985)
022 И. Корнелюк - Дым (1989)
023 Я. Евдокимов - Колодец (1988)
024 И. Николаев – Мельница (1987)
025 Д. Маликов - До завтра (1994)
026 М. Боярский – Ап! (1982)
027 Мираж – Музыка нас связала (1989)
028 Машина времени - В добрый час (1985)
029Ж. Белоусов - Девчонка-девчоночка (1991)
030 Маленький принц - Мы встретимся снова (1989)

Общее
Формат: MPEG-PS
Общий поток: 5028 Кбит/сек

Видео
Идентификатор: 224 (0xE0)
Формат: MPEG Video
Версия формата: Version 2
Профиль формата: Main@Main
Параметр BVOP формата: Да
Параметр матрицы формата: По умолчанию
Параметры GOP формата: M=3, N=15
Вид битрейта: Переменный
Битрейт: 4736 Кбит/сек
Номинальный битрейт: 9008 Кбит/сек
Ширина: 720 пикс.
Высота: 576 пикс.
Соотношение сторон: 4:3
Частота кадров: 25,000 кадр/сек
Стандарт вещания: PAL
Цветовое пространство: YUV
Подвыборка цветности: 4:2:0
Битовая глубина: 8 бит
Тип развёртки: Прогрессивная
Метод сжатия: С потерями
Бит/(Пиксели*Кадры): 0.457
Размер потока: 964 Мбайт (94%)

Аудио
Идентификатор: 128 (0x80)
Формат: AC-3
Формат/Информация: Audio Coding 3
Расширение режима: CM (complete main)
Вид битрейта: Постоянный
Битрейт: 192 Кбит/сек
Канал(ы): 2 канала(ов)
Расположение каналов: Front: L R
Частота: 48,0 КГц
Битовая глубина: 16 бит
Метод сжатия: С потерями
Размер потока: 39,1 Мбайт (4%)












Поделиться:




реклама партнёра


Вернуться к началу
 Профиль Отправить личное сообщение  
 
   Похожие торренты   Автор   Торрент   Размер 
В этой теме нет новых непрочитанных сообщений. VA - Дискотека забытых хитов (5) [Pop, Disco, Italo Disco, 2017] MP3 / 320kbps

salma3

221 | 23

628.17 МБ

В этой теме нет новых непрочитанных сообщений. VA - Дискотека забытых хитов (2) [Disco, Italo Disco, 2017] MP3 / 256-320kbps

salma3

253 | 31

680.2 МБ

В этой теме нет новых непрочитанных сообщений. VA - Дискотека забытых хитов (1) [Disco, Italo Disco, 2017] MP3 / 320kbps

salma3

689 | 55

684.16 МБ

В этой теме нет новых непрочитанных сообщений. VA - Дискотека забытых хитов (4) [Pop, Disco, Italo Disco, 2017] MP3 / 256-320kbps

salma3

402 | 55

695.61 МБ

В этой теме нет новых непрочитанных сообщений. VA - Дискотека забытых хитов (3) [Pop, Disco, Italo Disco, 2017] MP3 / 320kbps

salma3

145 | 9

631.48 МБ

В этой теме нет новых непрочитанных сообщений. VA - Дискотека 80-90х по-новому 2 [2015, Disco, Pop, MP3]

Nickolas3435

647 | 15

1002.89 МБ

В этой теме нет новых непрочитанных сообщений. I Love My Mom's Big Tits #5 / Я Люблю Большие Сиськи Моей Мамы #5 (Eddie Powell, Digital Sin) [2017 г., All Sex, Big Boobs, Family Roleplay, Mature, MILF, WEB-DL] (Split Scenes)

salma3

10 | 5

1.89 ГБ


Начать новую тему Ответить на тему  [ 1 сообщение ] 




Для Мосгорсуда, Роскомнадзора и рекламодателей:: mosgorsud-torrent[собачка]yandex.ru