Торрент файл
скачать торрент магнет ссылка Добавлен: 08 янв 2012, 04:11
Размер: 4.24 ГБ
Сидеров: 6
Личеров: 7
Автор

СообщениеДобавлено: 08 янв 2012, 04:11 

Не в сети
Супермодератор
Аватара пользователя
Дата регистрации:
22 май 2010, 11:03
Возраст: 31
Спасибо: 7509 / 13
Сообщения: 49940
Д. Арбенина и Е. Дятлов - Две звезды


Формат: DVD5, DVD Video, MPEG2, MP2
Песня: Две звезды
Жанр: Рор, Shanson, Bluz
Продолжительность: 02:44:01
Год выпуска: 2007-2008

Видео: 704х576 (PAL 4:3), 25 fps, MPEG-2, ~3354 kbps avg, 0.331 bit/pixel
Аудио: 48 kHz, МР-2 , 2 ch, 224.00 kbps avg

Доп. информация: Для тех кому интереснотворчеством Евгения Дятлова и Дианы Арбениной, для тех, кто с удовольствием смотрел проекты "Две звезды", для тех, кому нравится актерская деятельность Евгения и сольная карьера певицы Дианы, для всех тех, кто просто обожает голос и манеру исполнения песен Евгения и, конечно же, Дианы, для тех, кто может слушать их песни все время собран этот альбом.
Р.S. В скобках указаны даты выхода в эфир
01. Интро
02. Притяжения больше нет (16.12.2007)
03. Лирическая (23.12.2007)
04. Я спрошу у ясеня (с С. Трофимовым) (31.12.2007)
05. Цыганский блюз (20.01.200
06. Дуэт короля и прицессы (03.02.200
07. Белой акации гроздья душистые (10.02.200
08. Там, в сентябре (17.02.200
09. Свадьба (02.03.200
10. Я люблю тебя до слез (15.03.200
11. Не для меня (16.03.200
12. La camisa negra (30.03.200
13. Нежность (30.03.200
14. Сто шагов назад (06.04.200
15. Утинная охота (06.04.200
16. Не отрекаются любя (13.04.200
17. Самба белого мотылька (13.04.200
18. Я люблю тебя до слез (24.04.200
19. Аргентина - Ямайка (Д. Дебров) (27.04.200

Общее
Формат: MPEG-PS
Общий поток: 3651 Кбит/сек

Видео
Идентификатор: 224 (0xE0)
Формат: MPEG Video
Версия формата: Version 2
Профиль формата: Main@Main
Параметр BVOP формата: Да
Параметр матрицы формата: По умолчанию
Параметры GOP формата: M=3, N=15
Вид битрейта: Переменный
Битрейт: 3354 Кбит/сек
Номинальный битрейт: 8000 Кбит/сек
Ширина: 704 пикс.
Высота: 576 пикс.
Соотношение сторон: 4:3
Частота кадров: 25,000 кадр/сек
Стандарт вещания: PAL
Цветовое пространство: YUV
Подвыборка цветности: 4:2:0
Битовая глубина: 8 бит
Тип развёртки: Прогрессивная
Метод сжатия: С потерями
Бит/(Пиксели*Кадры): 0.331
Размер потока: 156 Мбайт (92%)

Аудио
Идентификатор: 192 (0xC0)
Формат: MPEG Audio
Версия формата: Version 1
Профиль формата: Layer 2
Вид битрейта: Постоянный
Битрейт: 224 Кбит/сек
Канал(ы): 2 канала(ов)
Частота: 48,0 КГц
Метод сжатия: С потерями
Задержка видео: -592 мс.
Размер потока: 10,4 Мбайт (6%)













Поделиться:




реклама партнёра


Вернуться к началу
 Профиль Отправить личное сообщение  
 
   Похожие торренты   Автор   Торрент   Размер 
В этой теме нет новых непрочитанных сообщений. Супермодели Секс Звёзды / Supermodel Sex Stars (2007) DVDRip

max77777

4 | 5

945.74 МБ

В этой теме нет новых непрочитанных сообщений. Сборник - Лучшие Исполнители Шансона [2015, Shanson, MP3]

Nickolas3435

160 | 10

633.81 МБ

В этой теме нет новых непрочитанных сообщений. Сборник - Застольный. Новогодняя веселуха [2014, Pop, Folk, Shanson, MP3]

Nickolas3435

433 | 25

1.53 ГБ

В этой теме нет новых непрочитанных сообщений. Сборник - Геометрия судьбы. Академия хитов шансона [2015, Shanson, MP3]

Nickolas3435

19 | 2

1.38 ГБ

В этой теме нет новых непрочитанных сообщений. Rockoschan's BAND (Рокошанс Бэнд) - В Тюрьме сидел кузнечик [2005, Rock, Shanson, MP3]

PriZraK

0 | 1

79.93 МБ

В этой теме нет новых непрочитанных сообщений. Тигровые лилии / The Tiger Lillies [Клипы] [3 шт] [Cabaret, Punk, Shanson, Blues, 2013] WEB-DL 1080p

Dracon

9 | 3

267.49 МБ

В этой теме нет новых непрочитанных сообщений. Три звезды [серия 1-30 из 30] [Мелодрама, 2014] SATRip

Dracon

126 | 29

14.98 ГБ


Начать новую тему Ответить на тему  [ 1 сообщение ] 




Для Мосгорсуда, Роскомнадзора и рекламодателей:: mosgorsud-torrent[собачка]yandex.ru