Торрент файл
скачать торрент магнет ссылка Добавлен: 08 янв 2012, 04:10
Размер: 4.36 ГБ
Сидеров: 0
Личеров: 11
Автор

СообщениеДобавлено: 08 янв 2012, 04:10 

Не в сети
Супермодератор
Аватара пользователя
Дата регистрации:
22 май 2010, 11:03
Возраст: 31
Спасибо: 7508 / 13
Сообщения: 49940
Кай Метов - Концерт в ЦДХ 25.02.2009


Формат: DVD5, DVD Video, MPEG2, AC3
Песня: Концерт в ЦДХ 25.02.2009
Жанр: Рор
Продолжительность: 02:21:20
Год выпуска: 2009

Видео: 720х576 (PAL 16:9), 25 fps, MPEG-2, ~3992 kbps avg, 0.385 bit/pixel
Аудио: 48 kHz, AC-3 , 2 ch, 192.00 kbps avg

Доп. информация: Сольный концерт Кая Метова состоялся 25 февраля 2009 года в Концертном зале Центрального дома художников (г. Москва).
Качество видео - CAMRip. Концерт + бонусы. Живой звук Live вы услышите сами, как и новые песни из будущего альбома.


Треклист концерта (1 час 45 мин. 54 сек.):
1. Где-то далеко идут дожди...
2. Как хотел я быть с тобою... (Тебя со мною рядом нет... (Part 2))
3. На сердце грусть
4. Ты идешь по дороге
5. Что-то не так у нас с тобой
6. Одиноким будет вечер без тебя
7. Роза чайная
8. Ты изменила жизнь мою...навсегда
9. Битое стекло
10. Так сложились звезды *
11. Вспомни меня
12. Так нельзя
13. Что ты сделала со мной
14. А ты меня не поняла
15. Тебя со мною рядом нет (Part 1)
16. Position №2
17. Дай же мне счастья глоток
18. Воспитательный процесс

Бонусы:
- Фотогалерея (видеомикс) - 2 мин. 45 сек.
- Любительская съемка с концерта - 12 мин. 24 сек.
- Репетиция - 16 мин. 07 сек.
- В гримерке до концерта - 2 мин. 57 сек.
- После концерта - 1 мин. 03 сек.

Общее
Формат: MPEG-PS
Общий поток: 4269 Кбит/сек

Видео
Идентификатор: 224 (0xE0)
Формат: MPEG Video
Версия формата: Version 2
Профиль формата: Main@Main
Параметр BVOP формата: Да
Параметр матрицы формата: По умолчанию
Параметры GOP формата: M=3, N=15
Вид битрейта: Переменный
Битрейт: 3992 Кбит/сек
Номинальный битрейт: 9641 Кбит/сек
Ширина: 720 пикс.
Высота: 576 пикс.
Соотношение сторон: 16:9
Частота кадров: 25,000 кадр/сек
Стандарт вещания: PAL
Цветовое пространство: YUV
Подвыборка цветности: 4:2:0
Битовая глубина: 8 бит
Тип развёртки: Чересстрочная
Порядок развёртки: Верхнее поле первое
Метод сжатия: С потерями
Бит/(Пиксели*Кадры): 0.385
Размер потока: 958 Мбайт (94%)

Аудио
Идентификатор: 128 (0x80)
Формат: AC-3
Формат/Информация: Audio Coding 3
Расширение режима: CM (complete main)
Вид битрейта: Постоянный
Битрейт: 192 Кбит/сек
Канал(ы): 2 канала(ов)
Расположение каналов: Front: L R
Частота: 48,0 КГц
Битовая глубина: 16 бит
Метод сжатия: С потерями
Задержка видео: -40 мс.
Размер потока: 46,1 Мбайт (4%)











Поделиться:




реклама партнёра


Вернуться к началу
 Профиль Отправить личное сообщение  
 
   Похожие торренты   Автор   Торрент   Размер 
В этой теме нет новых непрочитанных сообщений. Торжественный концерт ко Дню Победы. Красная площадь (Россия) [Концерт, 2015] HDTVRip

Dracon

1084 | 179

1.47 ГБ

В этой теме нет новых непрочитанных сообщений. Праздничный концерт День России в Крыму (Россия) [Концерт, 2015] HDTVRip

Dracon

130 | 11

1.36 ГБ

В этой теме нет новых непрочитанных сообщений. Концерт Ирины Аллегровой в Олимпийском (Россия) [Концерт, 2015] HDTV 1080i

Dracon

335 | 52

6.13 ГБ

В этой теме нет новых непрочитанных сообщений. Юбилейный концерт Евгения Крылатова [03.01] (Россия) [Концерт, 2015] HDTV 1080i

Dracon

18 | 3

5.49 ГБ

В этой теме нет новых непрочитанных сообщений. Праздничный концерт к Дню сотрудника органов внутренних дел (Россия) [Концерт, 2015] HDTVRip

Dracon

340 | 83

1.85 ГБ

В этой теме нет новых непрочитанных сообщений. Юбилейный концерт Надежды Кадышевой (Россия) [Концерт, 2015] HDTVRip

Dracon

6 | 3

1.37 ГБ

В этой теме нет новых непрочитанных сообщений. Юбилейный концерт Евгения Крылатова [03.01] (Россия) [Концерт, 2015] SATRip

Dracon

19 | 5

986.87 МБ


Начать новую тему Ответить на тему  [ 1 сообщение ] 




Для Мосгорсуда, Роскомнадзора и рекламодателей:: mosgorsud-torrent[собачка]yandex.ru
cron