Торрент файл
скачать торрент магнет ссылка Добавлен: 08 янв 2012, 04:09
Размер: 3.85 ГБ
Сидеров: 11
Личеров: 6
Автор

СообщениеДобавлено: 08 янв 2012, 04:09 

Не в сети
Супермодератор
Аватара пользователя
Дата регистрации:
22 май 2010, 11:03
Возраст: 32
Спасибо: 7696 / 13
Сообщения: 49871
Pink - The Best


Формат: DVD5, DVD Video, MPEG2, AC3
Песня: The Best
Жанр: Pop-rock, R'n'B
Продолжительность: 01:46:42
Год выпуска: 2011

Видео: 720х576 (PAL 16:9), 25 fps, MPEG-2, ~4226 kbps avg, 0.408 bit/pixel
Аудио: 48 kHz, AC-3 , 2 ch, 192.00 kbps avg

Доп. информация: Алиша Бет Мур (8 сентября 1979, Дойлстаун, Пенсильвания, США), более известная под псевдонимом Pink — американская певица, автор песен и актриса, ставшая популярной в начале 2000 года, после выпуска альбома «Can't Take Me Home».
Pink — лучшая поп-артистка в период с 2000 по 2010 года по рейтингу американского журнала «Billboard» «Конечный Хит-парад Десятилетия». Она также находилась на 10-м месте хит-парада «Billboard Hot 100», в «двадцатке лучших» в США, выиграла 2 награды «Грэмми», 5 наград «MTV Music Awards» и 2 награды «Brit Awards».

01.Lady Marmalade
02. Get the Party Started
03. Just Like A Pill
04. Dear Mr. President
05. Sober
06. Leave Me Alone
07. U + UR Hand
08. So What
09. Family Portrait
10. Trouble
11. Nobody Knows
12. Don’t Let Me Get Me
13.Please Don't Leave Me
14. God Is A DJ
15. I Don’t Believe You
16. Who Knew
17. Funhouse
18. Stupid Girls
19. There You Go
20. Feel Good Time
21. Last To Know
22. You Make Me Sick
23. Most Girls
24. Sober (MIX)
25. Get the Party Started (MIX)
26. Just Like A Pill (MIX)
27. Lady Marmalade (MIX)

Общее
Полное имя: C:\Tfile\pink_the_best_[tfile.ru]\VIDEO_TS\VTS_01_1.VOB
Формат: MPEG-PS
Общий поток: 4507 Кбит/сек

Видео
Идентификатор: 224 (0xE0)
Формат: MPEG Video
Версия формата: Version 2
Профиль формата: Main@Main
Параметр BVOP формата: Да
Параметр матрицы формата: По умолчанию
Параметры GOP формата: M=3, N=13
Вид битрейта: Переменный
Битрейт: 4226 Кбит/сек
Номинальный битрейт: 9008 Кбит/сек
Ширина: 720 пикс.
Высота: 576 пикс.
Соотношение сторон: 4:3
Частота кадров: 25,000 кадр/сек
Стандарт вещания: PAL
Цветовое пространство: YUV
Подвыборка цветности: 4:2:0
Битовая глубина: 8 бит
Тип развёртки: Прогрессивная
Метод сжатия: С потерями
Бит/(Пиксели*Кадры): 0.408
Размер потока: 960 Мбайт (94%)

Аудио
Идентификатор: 128 (0x80)
Формат: AC-3
Формат/Информация: Audio Coding 3
Расширение режима: CM (complete main)
Вид битрейта: Постоянный
Битрейт: 192 Кбит/сек
Канал(ы): 2 канала(ов)
Расположение каналов: Front: L R
Частота: 48,0 КГц
Битовая глубина: 16 бит
Метод сжатия: С потерями
Размер потока: 43,6 Мбайт (4%)












Поделиться:




реклама партнёра


Вернуться к началу
 Профиль Отправить личное сообщение  
 
   Похожие торренты   Автор   Торрент   Размер 
В этой теме нет новых непрочитанных сообщений. [AnalIntroductions.com / Private.com] Vinna Reed, Violette Pink (Violett Pink Makes a Cum Back in Trio With Vinna Red / 18.05.17.) [2017 г., Gonzo, Threesome, Anal, 360p]

salma3

38 | 13

296.84 МБ

В этой теме нет новых непрочитанных сообщений. [X-Art.com] Pink Violet aka Violette Pure, Violette Pink - The Tightest Blonde (28.10.2017) [All Sex]

salma3

35 | 12

594.08 МБ

В этой теме нет новых непрочитанных сообщений. [X-Art.com] Pink Violet aka Violette Pure, Violette Pink (The Tightest Blonde) The Tightest Blonde 2160p, 4k [2017 г., All sex]

salma3

13 | 4

4.46 ГБ

В этой теме нет новых непрочитанных сообщений. PennyPaxLive 16 12 23 Pink Bodystocking And Dildo JOI XXX 1080p MP4-KTR

salma3

0 | 0

1.18 ГБ

В этой теме нет новых непрочитанных сообщений. Mia Lelani And Ivy Rose Pink Little Mia (2016) 1080p

salma3

0 | 0

2.46 ГБ

В этой теме нет новых непрочитанных сообщений. Remy Larue Tickled Pink (2016) 1080p

salma3

0 | 0

2.09 ГБ

В этой теме нет новых непрочитанных сообщений. ALSScan 17 03 10 Alex Grey Pink And Purple XXX 2160p MP4-KTR

salma3

2 | 0

2.67 ГБ


Начать новую тему Ответить на тему  [ 1 сообщение ] 




Для Мосгорсуда, Роскомнадзора и рекламодателей:: mosgorsud-torrent[собачка]yandex.ru