Торрент файл
скачать торрент магнет ссылка Добавлен: 08 янв 2012, 04:08
Размер: 4.15 ГБ
Сидеров: 2
Личеров: 3
Автор

СообщениеДобавлено: 08 янв 2012, 04:08 

Не в сети
Супермодератор
Аватара пользователя
Дата регистрации:
22 май 2010, 11:03
Возраст: 32
Спасибо: 7690 / 13
Сообщения: 49871
Grave Digger - Tunes Of Wacken


Формат: DVD5, DVD Video, MPEG2, MP2
Песня: Tunes Of Wacken
Жанр: Heavy Metal
Продолжительность: 01:24:38
Год выпуска: 2002
Видео: MPEG 2 VIDEO, 720*576( PAL 4:3), 25.00 fps, ~7000 kbps avg, 0,675 bit/pixel
Аудио: 48.0 khz, MPEG AUDIO (version 1) (layer 2), 2 ch, 192 kbps avg
Доп. информация: Концерт на фестивале в Wacken. Бонус: фотогалерея, документальные съёмки выступления.
    Треклист
    01. Scotland United
    02. The Dark of the Sun
    03. The Reaper
    04. The Roundtable
    05. Excalibur
    06. Circle of Witches
    07. The Ballad of Mary
    08. Lionheart
    09. Morgane Le Fay
    10. Knights of the Cross
    11. Rebellion
    12. Heavy Metal Breakdown
Title: VIDEO_TS 1
Size: 4.14 Gb ( 4 346 014,00 KBytes ) - DVD-5
Enabled regions: 1, 2, 3, 4, 5, 6, 7, 8

VTS_01 :
Play Length: 01:04:45+{00:06:13}+{00:04:48}+{00:04:16}+{00:04:36}+{00:05:16}+{00:06:05}+{00:05:25}+{00:05:19}+{00:05:19}+{00:05:09}+{00:04:30}+{00:07:44}
Video: PAL 4:3 (720x576) VBR
Audio:
Not specified, MPA, Delay = 0 mSec

VTS_02 :
Play Length: 00:00:05
Video: PAL 4:3 (720x576) VBR
Audio:
Not specified (MPEG1, 2 ch)

VTS_03 :
Play Length: 00:00:03
Video: PAL 4:3 (720x576) VBR
Audio:
Not specified (MPEG1, 2 ch)

VTS_04 :
Play Length: 00:00:03
Video: PAL 4:3 (720x576) VBR
Audio:
Not specified (MPEG1, 2 ch)

VTS_05 :
Play Length: 00:00:03
Video: PAL 4:3 (720x576) VBR
Audio:
Not specified (MPEG1, 2 ch)

VTS_06 :
Play Length: 00:00:03
Video: PAL 4:3 (720x576) VBR
Audio:
Not specified (MPEG1, 2 ch)

VTS_07 :
Play Length: 00:00:03
Video: PAL 4:3 (720x576) VBR
Audio:
Not specified (MPEG1, 2 ch)

VTS_08 :
Play Length: 00:00:03
Video: PAL 4:3 (720x576) VBR
Audio:
Not specified (MPEG1, 2 ch)

VTS_09 :
Play Length: 00:00:04
Video: PAL 4:3 (720x576) VBR
Audio:
Not specified (MPEG1, 2 ch)

VTS_10 :
Play Length: 00:00:03
Video: PAL 4:3 (720x576) VBR
Audio:
Not specified (MPEG1, 2 ch)

VTS_11 :
Play Length: 00:00:03
Video: PAL 4:3 (720x576) VBR
Audio:
Not specified (MPEG1, 2 ch)

VTS_12 :
Play Length: 00:00:03
Video: PAL 4:3 (720x576) VBR
Audio:
Not specified (MPEG1, 2 ch)

VTS_13 :
Play Length: 00:00:03
Video: PAL 4:3 (720x576) VBR
Audio:
Not specified (MPEG1, 2 ch)

VTS_14 :
Play Length: 00:01:43
Video: PAL 4:3 (720x576) VBR
Audio:
Not specified (MPEG1, 2 ch)

VTS_15 :
Play Length: 00:04:00
Video: PAL 4:3 (720x576) VBR
Audio:
Not specified (MPEG1, 2 ch)

VTS_16 :
Play Length: 00:05:41
Video: PAL 4:3 (720x576) VBR
Audio:
Not specified (MPEG1, 2 ch)
Общее
Полное имя: D:\Video\Grave Digger - Tunes Of Wacken\VIDEO_TS 1\VTS_01_1.VOB
Формат: MPEG-PS
Размер файла: 1023 Мбайт
Продолжительность: 19 м.
Общий поток: 7337 Кбит/сек

Видео
Идентификатор: 224 (0xE0)
Формат: MPEG Video
Версия формата: Version 2
Профиль формата: Main@Main
Параметр BVOP формата: Да
Параметр матрицы формата: По умолчанию
Продолжительность: 19 м.
Вид битрейта: Постоянный
Битрейт: 7000 Кбит/сек
Ширина: 720 пикс.
Высота: 576 пикс.
Соотношение сторон: 4:3
Частота кадров: 25,000 кадр/сек
Стандарт вещания: PAL
Цветовое пространство: YUV
Подвыборка цветности: 4:2:0
Битовая глубина: 8 бит
Тип развёртки: Чересстрочная
Порядок развёртки: Верхнее поле первое
Метод сжатия: С потерями
Бит/(Пиксели*Кадры): 0.675
Размер потока: 976 Мбайт (95%)

Аудио
Идентификатор: 192 (0xC0)
Формат: MPEG Audio
Версия формата: Version 1
Профиль формата: Layer 2
Продолжительность: 19 м.
Вид битрейта: Постоянный
Битрейт: 192 Кбит/сек
Каналы: 2 канала
Частота: 48,0 КГц
Метод сжатия: С потерями
Задержка видео: -80 мс.
Размер потока: 26,8 Мбайт (3%)

Меню









[b]Поделиться:




реклама партнёра


Вернуться к началу
 Профиль Отправить личное сообщение  
 
   Похожие торренты   Автор   Торрент   Размер 
В этой теме нет новых непрочитанных сообщений. VA - Heavy Metal: Louder Than Life [2015, Hard Rock, Melodic Heavy Metal, Heavy Metal, MP3]

Nickolas3435

0 | 272

2.43 ГБ

В этой теме нет новых непрочитанных сообщений. VA - Jingle Bells Jazz Tunes, Vol. 1 (Special Winter Chill out and Jazz Tunes) (2014) MP3

Dracon

24 | 2

260.73 МБ

В этой теме нет новых непрочитанных сообщений. Accept - Heavy Ballads (Heavy Metal. 2015) MP3

Aleksandr.ru

403 | 34

363.25 МБ

В этой теме нет новых непрочитанных сообщений. W.A.S.P. - Golgotha [2015, Heavy Metal, Glam Metal, Hard Rock, MP3]

salma3

0 | 0

108.17 МБ

В этой теме нет новых непрочитанных сообщений. [Android] Grave Defense HD 1.15.2 [RUS]

Avril

0 | 1

28.6 МБ

В этой теме нет новых непрочитанных сообщений. [RKPrime.com / RealityKings.com] Nina Elle - Busty Gold Digger (07.09.2017) [Amateur, Cheating, Big Tits Worship, Couples Fantasies, Car, Living Room, Blowjob, Sex, Finger Banging, Masturbation, Anal Play, Pussy Licking, Tittyfuck, Ass Wors

salma3

35 | 11

368.16 МБ

В этой теме нет новых непрочитанных сообщений. [RKPrime.com / RealityKings.com] Nina Elle (Busty Gold Digger) [2017 г., Amateur, Cheating, Big Tits Worship, Couples Fantasies, Car, Living Room, Blowjob, Sex, Finger Banging, Masturbation, Anal Play, Pussy Licking, Tittyfuck, Ass Worship,

salma3

14 | 4

2.6 ГБ


Начать новую тему Ответить на тему  [ 1 сообщение ] 




Для Мосгорсуда, Роскомнадзора и рекламодателей:: mosgorsud-torrent[собачка]yandex.ru