Торрент файл
скачать торрент магнет ссылка Добавлен: 08 янв 2012, 04:08
Размер: 2.34 ГБ
Сидеров: 3
Личеров: 8
Автор

СообщениеДобавлено: 08 янв 2012, 04:08 

Не в сети
Супермодератор
Аватара пользователя
Дата регистрации:
22 май 2010, 11:03
Возраст: 31
Спасибо: 7509 / 13
Сообщения: 49940
Epica - Live At Underground Koeln


Формат: DVD5, DVD Video, MPEG2, MP2
Песня: Live At Underground Koeln
Жанр: Symphonic, Gothic Metal
Продолжительность: 00:46:36
Год выпуска: 2007
Видео: MPEG 2 VIDEO, 720*576( PAL 16:9), 25.00 fps,~ 6852 kbps avg, 0.661 bit/pixel
Аудио: 48.0 khz, MPEG AUDIO (version 1) (layer 2), 2 ch, 192 kbps avg
Доп. информация: Концерт в Кёльне, Германия. 21 июня 2007 года. Интервью с Simone Simmons & Mark Jansen
    Треклист
    1. Indigo
    2. The Obsessive Devotion
    3. Cry For The Moon
    4. Beyond Belief
    5. Blank Infinity
    6. Never Enough
    7. Consign To Oblivion
Title: Epica - Live At Underground Koeln
Size: 2.34 Gb ( 2 453 290,00 KBytes ) - DVD-5
Enabled regions: 1, 2, 3, 4, 5, 6

VTS_01 :
Play Length: 00:46:36
Video: PAL 16:9 (720x576) VBR, Auto Letterboxed
Audio:
English, MPA, Delay = 0 mSec
Общее
Полное имя: D:\Torrents\Download\Epica - Live At Underground Koeln\VIDEO_TS\VTS_01_1.VOB
Формат: MPEG-PS
Размер файла: 1024 Мбайт
Продолжительность: 19 м.
Общий поток: 7187 Кбит/сек

Видео
Идентификатор: 224 (0xE0)
Формат: MPEG Video
Версия формата: Version 2
Профиль формата: Main@Main
Параметр BVOP формата: Да
Параметр матрицы формата: По умолчанию
Параметры GOP формата: M=3, N=12
Продолжительность: 19 м.
Вид битрейта: Переменный
Битрейт: 6852 Кбит/сек
Ширина: 720 пикс.
Высота: 576 пикс.
Соотношение сторон: 16:9
Частота кадров: 25,000 кадр/сек
Стандарт вещания: PAL
Цветовое пространство: YUV
Подвыборка цветности: 4:2:0
Битовая глубина: 8 бит
Тип развёртки: Чересстрочная
Порядок развёртки: Верхнее поле первое
Метод сжатия: С потерями
Бит/(Пиксели*Кадры): 0.661
Размер потока: 976 Мбайт (95%)

Аудио
Идентификатор: 192 (0xC0)
Формат: MPEG Audio
Версия формата: Version 1
Профиль формата: Layer 2
Продолжительность: 19 м.
Вид битрейта: Постоянный
Битрейт: 192 Кбит/сек
Каналы: 2 канала
Частота: 48,0 КГц
Метод сжатия: С потерями
Размер потока: 27,4 Мбайт (3%)

Меню






[b]Поделиться:




реклама партнёра


Вернуться к началу
 Профиль Отправить личное сообщение  
 
   Похожие торренты   Автор   Торрент   Размер 
В этой теме нет новых непрочитанных сообщений. Epica - Requiem For The Indifferent [2012, Symphonic Gothic Metal, MP3]

PriZraK

0 | 1

178.88 МБ

В этой теме нет новых непрочитанных сообщений. Epica - Storm The Sorrow [01.2012, Symphonic Power, Gothic Metal, MP3]

PriZraK

0 | 1

7.13 МБ

В этой теме нет новых непрочитанных сообщений. Epica - Requiem For The Indifferent (Ltd. Digibook Edition) [2012, Symphonic Power Metal,Gothic Metal, MP3]

PriZraK

0 | 1

175.26 МБ

В этой теме нет новых непрочитанных сообщений. Epica - Requiem For The Indifferent (Complete Edition) (2CD) [2012, Symphonic Gothic Metal, MP3]

PriZraK

0 | 1

372.1 МБ

В этой теме нет новых непрочитанных сообщений. Epica – The Phantom Agony (Expanded Edition, 2CD) [2013, Symphonic Gothic Metal, MP3]

PriZraK

0 | 1

286.07 МБ

В этой теме нет новых непрочитанных сообщений. Epica - Retrospect: 10th Anniversary (Live, 3CD) [2013, Symphonic Power Metal, MP3]

PriZraK

0 | 1

382 МБ

В этой теме нет новых непрочитанных сообщений. Within Temptation: Let Us Burn - Elements & Hydra Live In Concert [Symphonic Metal, Gothic Rock, Power Metal, 2014] BDRemux 1080i

Dracon

32 | 8

20.63 ГБ


Начать новую тему Ответить на тему  [ 1 сообщение ] 




Для Мосгорсуда, Роскомнадзора и рекламодателей:: mosgorsud-torrent[собачка]yandex.ru