Торрент файл
скачать торрент магнет ссылка Добавлен: 08 янв 2012, 04:08
Размер: 2.34 ГБ
Сидеров: 3
Личеров: 8
Автор

СообщениеДобавлено: 08 янв 2012, 04:08 

Не в сети
Супермодератор
Аватара пользователя
Дата регистрации:
22 май 2010, 11:03
Возраст: 37
Спасибо: 7939 / 13
Сообщения: 49828
Epica - Live At Underground Koeln


Формат: DVD5, DVD Video, MPEG2, MP2
Песня: Live At Underground Koeln
Жанр: Symphonic, Gothic Metal
Продолжительность: 00:46:36
Год выпуска: 2007
Видео: MPEG 2 VIDEO, 720*576( PAL 16:9), 25.00 fps,~ 6852 kbps avg, 0.661 bit/pixel
Аудио: 48.0 khz, MPEG AUDIO (version 1) (layer 2), 2 ch, 192 kbps avg
Доп. информация: Концерт в Кёльне, Германия. 21 июня 2007 года. Интервью с Simone Simmons & Mark Jansen
    Треклист
    1. Indigo
    2. The Obsessive Devotion
    3. Cry For The Moon
    4. Beyond Belief
    5. Blank Infinity
    6. Never Enough
    7. Consign To Oblivion
Title: Epica - Live At Underground Koeln
Size: 2.34 Gb ( 2 453 290,00 KBytes ) - DVD-5
Enabled regions: 1, 2, 3, 4, 5, 6

VTS_01 :
Play Length: 00:46:36
Video: PAL 16:9 (720x576) VBR, Auto Letterboxed
Audio:
English, MPA, Delay = 0 mSec
Общее
Полное имя: D:\Torrents\Download\Epica - Live At Underground Koeln\VIDEO_TS\VTS_01_1.VOB
Формат: MPEG-PS
Размер файла: 1024 Мбайт
Продолжительность: 19 м.
Общий поток: 7187 Кбит/сек

Видео
Идентификатор: 224 (0xE0)
Формат: MPEG Video
Версия формата: Version 2
Профиль формата: Main@Main
Параметр BVOP формата: Да
Параметр матрицы формата: По умолчанию
Параметры GOP формата: M=3, N=12
Продолжительность: 19 м.
Вид битрейта: Переменный
Битрейт: 6852 Кбит/сек
Ширина: 720 пикс.
Высота: 576 пикс.
Соотношение сторон: 16:9
Частота кадров: 25,000 кадр/сек
Стандарт вещания: PAL
Цветовое пространство: YUV
Подвыборка цветности: 4:2:0
Битовая глубина: 8 бит
Тип развёртки: Чересстрочная
Порядок развёртки: Верхнее поле первое
Метод сжатия: С потерями
Бит/(Пиксели*Кадры): 0.661
Размер потока: 976 Мбайт (95%)

Аудио
Идентификатор: 192 (0xC0)
Формат: MPEG Audio
Версия формата: Version 1
Профиль формата: Layer 2
Продолжительность: 19 м.
Вид битрейта: Постоянный
Битрейт: 192 Кбит/сек
Каналы: 2 канала
Частота: 48,0 КГц
Метод сжатия: С потерями
Размер потока: 27,4 Мбайт (3%)

Меню






[b]Поделиться:



Вернуться к началу
 Профиль Отправить личное сообщение  
 
   Похожие торренты   Автор   Торрент   Размер 
В этой теме нет новых непрочитанных сообщений. Шестеро вне закона / 6 Underground [боевик, триллер, 2019] WEB-DL 1080p, Dub [Пифагор]

salma3

3434 | 514

7.9 ГБ

В этой теме нет новых непрочитанных сообщений. Diana Prince - Наказание порнозвезд 5 / Pornstar Punishment 5 / Cumming Straight from the Underground (2012) WEB-DLRip 1080p

zorgi

24 | 1

1.25 ГБ

В этой теме нет новых непрочитанных сообщений. W.A.S.P. - Dominator (FLAC) [Heavy Metal, 2007] FLAC (image+.cue), lossless

Redscarf

14 | 0

326.62 МБ

В этой теме нет новых непрочитанных сообщений. Противоположный пол, и как с ним жить / The Opposite Sex and How to Live with Them [мелодрама, комедия, 1992] WEBRip, Avo

salma3

0 | 0

1.45 ГБ

В этой теме нет новых непрочитанных сообщений. Armin van Buuren - Live at Tomorrowland 2020 NYE [2020 г., Trance, WEBRip 1080p]

zorgi

9 | 0

398.56 МБ

В этой теме нет новых непрочитанных сообщений. Медсестра / L'Infirmiere / The Nurse (1978) DVD5

zorgi

0 | 0

2.21 ГБ

В этой теме нет новых непрочитанных сообщений. Подростки спермаголики 2 / Teenage Spermaholics 2 (2004) DVD5

zorgi

22 | 58

4.35 ГБ


Начать новую тему Ответить на тему  [ 1 сообщение ] 




Для Мосгорсуда, Роскомнадзора и рекламодателей:: rstracker[собака]yandex.ru
cron