Торрент файл
скачать торрент магнет ссылка Добавлен: 08 янв 2012, 04:06
Размер: 4.36 ГБ
Сидеров: 5
Личеров: 4
Автор

СообщениеДобавлено: 08 янв 2012, 04:06 

Не в сети
Супермодератор
Аватара пользователя
Дата регистрации:
22 май 2010, 11:03
Возраст: 32
Спасибо: 7646 / 13
Сообщения: 49894
VA - Черный тюльпан


Формат: DVD5, DVD Video, MPEG2, AC3
Песня: Черный тюльпан
Жанр: Военная песня
Продолжительность: 02:27:10
Год выпуска: 1979-1989

Видео: 720х576 (PAL 4:3), 25 fps, MPEG-2, ~4163 kbps avg, 0.402 bit/pixel
Аудио: 48 kHz, АС-3 , 2 ch, 192.00 kbps avg

Доп. информация: Всем тем, кто знает и понимает смысл слова ВОЙНА, кого связала судьба с той чужой страной, тем кто шел плечем к плечу по дорогам Афганистана, тем кто не вернулся, тем кто выжил и тем кому не довелось дожить до наших дней - посвящается!

Хроника Афганской войны. (00:09:43)

Песни (01:51:53)
01 Чёрный тюльпан
02 Второй батальон
03 Мы выходим на рассвете…
04 Кандагар
05 Сон
06 Я ухожу
07 Караван
08 Ордена не продаются
09 Я вернусь!
10 Ну что братан?
11 Эх, пацаны
12 Десантное братство
13 На войне, как на войне
14 Кукушка
15 Книга памяти
16 Песня танкиста
17 Горы золотые
18 Товарищ прапорщик
19 Батальонная разведка
20 Пропавшим без вести и погибшим в плену
21 Десантная братва
22 Мы спецназ
23 Виват!
24 Вертолетчикам!
25 Груз 200
26 Ну разве это было зря
27 Дойдем! (из к/ф «9 рота»)
28 Память
29 Пусть память говорит
30 Мы уходим

Афган -когда поют солдаты («Русский характер»)(00:25:34)

Общее
Формат: MPEG-PS
Общий поток: 4443 Кбит/сек

Видео
Идентификатор: 224 (0xE0)
Формат: MPEG Video
Версия формата: Version 2
Профиль формата: Main@Main
Параметр BVOP формата: Да
Параметр матрицы формата: По умолчанию
Параметры GOP формата: M=3, N=15
Вид битрейта: Переменный
Битрейт: 4163 Кбит/сек
Номинальный битрейт: 9008 Кбит/сек
Ширина: 720 пикс.
Высота: 576 пикс.
Соотношение сторон: 4:3
Частота кадров: 25,000 кадр/сек
Стандарт вещания: PAL
Цветовое пространство: YUV
Подвыборка цветности: 4:2:0
Битовая глубина: 8 бит
Тип развёртки: Прогрессивная
Метод сжатия: С потерями
Бит/(Пиксели*Кадры): 0.402
Размер потока: 959 Мбайт (94%)

Аудио
Идентификатор: 128 (0x80)
Формат: AC-3
Формат/Информация: Audio Coding 3
Расширение режима: CM (complete main)
Вид битрейта: Постоянный
Битрейт: 192 Кбит/сек
Канал(ы): 2 канала(ов)
Расположение каналов: Front: L R
Частота: 48,0 КГц
Битовая глубина: 16 бит
Метод сжатия: С потерями
Размер потока: 44,2 Мбайт (4%)














Поделиться:




реклама партнёра


Вернуться к началу
 Профиль Отправить личное сообщение  
 
   Похожие торренты   Автор   Торрент   Размер 
В этой теме нет новых непрочитанных сообщений. Сборник - Песни с фронта. Сборник военных песен [2015, Советская песня, Военная песня, MP3]

Dracon

477 | 26

721.22 МБ

В этой теме нет новых непрочитанных сообщений. Черный Джек / Black Jack [комедия, приключения, 1979] HDRip, Avo

salma3

245 | 70

1.46 ГБ

В этой теме нет новых непрочитанных сообщений. Черный Дождь / Black Rain [Боевик, 1989] BDRip 1080p, Mvo

salma3

68 | 35

12.6 ГБ

В этой теме нет новых непрочитанных сообщений. Чёрный дождь / Black Rain [боевик, триллер, криминал, 1989] HDRip, Mvo

salma3

129 | 11

1.45 ГБ

В этой теме нет новых непрочитанных сообщений. Черный дождь / Black Rain [Боевик, триллер, драма, криминал, 1989] BDRip 720p, Mvo

salma3

15 | 12

11.22 ГБ

В этой теме нет новых непрочитанных сообщений. Сборник - Лирика Весны: Авторская Песня [Шансон, Авторская Песня, 2017] MP3 / 256kbps

salma3

10 | 1

1.03 ГБ

В этой теме нет новых непрочитанных сообщений. Тюльпан / Tulpan (Сергей Дворцевой) [2008, Мелодрама, комедия, DVDRip]

Nickolas3435

101 | 1

1.45 ГБ


Начать новую тему Ответить на тему  [ 1 сообщение ] 




Для Мосгорсуда, Роскомнадзора и рекламодателей:: mosgorsud-torrent[собачка]yandex.ru