Торрент файл
скачать торрент магнет ссылка Добавлен: 08 янв 2012, 04:06
Размер: 4.14 ГБ
Сидеров: 6
Личеров: 7
Автор

СообщениеДобавлено: 08 янв 2012, 04:06 

Не в сети
Супермодератор
Аватара пользователя
Дата регистрации:
22 май 2010, 11:03
Возраст: 37
Спасибо: 7939 / 13
Сообщения: 49828
Кар-Мэн - Лучшее Vol.2


Формат: DVD5, DVD Video, MPEG2, PCM
Песня: Лучшее Vol.2
Жанр: Techno-Pop
Продолжительность: 01:02:00
Год выпуска: 1989-1991

Видео: 720х576 (PAL 4:3), 25 fps, MPEG-2, ~6348 kbps avg, 0.612 bit/pixel
Аудио: 48 kHz, PCM , 2 ch, 1536.00 kbps avg

Доп. информация: Группа основана в 1989 году Богданом Титомиром и Сергеем Лемохом, которые были музыкантами у Дмитрия Маликова. Потом, работая в подтанцовке певца Владимира Мальцева, они сочинили для него песню «Париж, Париж», которую впоследствии решили исполнять самостоятельно.
В конце 1991 года Богдан Титомир покидает проект, приняв решение заняться сольной карьерой. Вместе с тем, «Кар-мэн» как проект с его уходом не прекращает свое существование.
Группа получила ряд премий: «Шлягер-90» (1990), «50х50» (1991), «Звездный дождь» (1991), «Овация» (1991).

P.S. Выражаю свою благодарность BaD_MaX777 за создание этого диска.


01. Париж
02. Сан-Франциско (Утреняя звезда 1992)
03. Чио Чио Сан (Live @ МузОбоз)
04. Is It Love (Ночной канал)
05. Caribbean Girl (Live)
06. Звуковой агрессор (Игорь'с Поп Шоу)
07. Парень Из Африки (50-50)
08. Ангел Любви (Площадка Обоза)
09. Мамайя Канибалс (Площадка Обоза)
10. Танцы В Лазерном Дыму (Площадка Обоза)
11. Это Сан-Франциско (Площадка Обоза)
12. Чио Чио Сан (Live 1991)
13. Робинзон (1997 Сюрприз От Аллы Пугачёвой)
14. Отель Калифорния (Live @ Звуковая Дорожка)

Общее
Формат: MPEG-PS
Общий поток: 8044 Кбит/сек

Видео
Идентификатор: 224 (0xE0)
Формат: MPEG Video
Версия формата: Version 2
Профиль формата: Main@Main
Параметр BVOP формата: Да
Параметр матрицы формата: По умолчанию
Параметры GOP формата: M=3, N=15
Вид битрейта: Переменный
Битрейт: 6348 Кбит/сек
Номинальный битрейт: 9610 Кбит/сек
Ширина: 720 пикс.
Высота: 576 пикс.
Соотношение сторон: 4:3
Частота кадров: 25,000 кадр/сек
Стандарт вещания: PAL
Цветовое пространство: YUV
Подвыборка цветности: 4:2:0
Битовая глубина: 8 бит
Тип развёртки: Прогрессивная
Порядок развёртки: Нижнее поле первое
Метод сжатия: С потерями
Бит/(Пиксели*Кадры): 0.612
Размер потока: 808 Мбайт (79%)

Аудио
Идентификатор: 160 (0xA0)
Формат: PCM
Параметр Endianness формата: Big
Параметр Sign формата: Signed
Режим смешивания: DVD-Video
Вид битрейта: Постоянный
Битрейт: 1536 Кбит/сек
Канал(ы): 2 канала(ов)
Расположение каналов: Front: L R
Частота: 48,0 КГц
Битовая глубина: 16 бит
Размер потока: 196 Мбайт (19%)












Поделиться:



Вернуться к началу
 Профиль Отправить личное сообщение  
 
   Похожие торренты   Автор   Торрент   Размер 
В этой теме нет новых непрочитанных сообщений. Феофания, рисующая смерть / Clearing [историческая драма, 1991] DVD5, Mvo

salma3

0 | 0

4.36 ГБ

В этой теме нет новых непрочитанных сообщений. Jenny Simons, Athina & Cathy Heaven - 5 Incredible Orgies Vol.4 / Swingers Orgies Vol.9 (2014) WEB-DLRip

zorgi

28 | 8

712.88 МБ

В этой теме нет новых непрочитанных сообщений. Jalace - Rocco's POV Vol.32 / Rocco One on One Vol.3 (2013) WEB-DL 720p

zorgi

31 | 5

1.36 ГБ

В этой теме нет новых непрочитанных сообщений. Страсть / Пламя / Flame (1989) DVDRip

zorgi

0 | 0

702.37 МБ

В этой теме нет новых непрочитанных сообщений. Дворец удовольствий 1 / Pleasure Palace 1 (1989) VHSRip

zorgi

9 | 20

1.62 ГБ

В этой теме нет новых непрочитанных сообщений. Собор / La chiesa [ужасы, 1989] HDRip, Avo

salma3

0 | 0

1.45 ГБ

В этой теме нет новых непрочитанных сообщений. Жара в городе / Hot in the City (1989) DVDRip

zorgi

20 | 15

1.41 ГБ


Начать новую тему Ответить на тему  [ 1 сообщение ] 




Для Мосгорсуда, Роскомнадзора и рекламодателей:: rstracker[собака]yandex.ru
cron