Торрент файл
скачать торрент магнет ссылка Добавлен: 08 янв 2012, 04:05
Размер: 3.14 ГБ
Сидеров: 0
Личеров: 5
Автор

СообщениеДобавлено: 08 янв 2012, 04:05 

Не в сети
Супермодератор
Аватара пользователя
Дата регистрации:
22 май 2010, 11:03
Возраст: 32
Спасибо: 7690 / 13
Сообщения: 49871
Марта - The Best


Формат: DVD5, DVD Video, MPEG2, MP2
Песня: The Best
Жанр: Pop
Продолжительность: 00:51:27
Год выпуска: 2009

Видео: 720х576 (PAL 4:3), 25 fps, MPEG-2, ~7805 kbps avg, 0.753 bit/pixel
Аудио: 48 kHz, MP-2 , 2 ch, 224.00 kbps avg

Доп. информация: Родом из Черновцов. Поет с детства. Участница и лауреат многих всеукраинских и международных детских и юношеских вокальных конкурсов (им. В. Ивасюка, «DISCOVERY» в Софии, «UNIVERSETALENT» в Праге и др.)
В 2004 году переезжает в Киев и начинает профессиональную певческую карьеру вместе с продюсером Олегом Барабашом (экс-музыкантом группы «Табула раса», известным украинским звукорежиссером).


01. Несколько секунд (00:03:33)
02. Буду твоей (00:03:29)
03. Пламенем (00:03:52)
04. Нас двое (00:03:53)
05. Колыбельная (00:03:14)
06. Цветок (00:03:26)
07. Мне много не надо (00:04:04)
08. Когда (00:03:37)
09. Небо (00:03:49)
10. Дыхание (00:04:00)
11. Без тебя (00:03:41)
12. Пламенем RMX (00:03:47)
13. Дыхание RMX (00:04:00)

Общее
Формат: MPEG-PS
Общий поток: 8192 Кбит/сек

Видео
Идентификатор: 224 (0xE0)
Формат: MPEG Video
Версия формата: Version 2
Профиль формата: Main@Main
Параметр BVOP формата: Да
Параметр матрицы формата: По умолчанию
Параметры GOP формата: M=3, N=15
Вид битрейта: Переменный
Битрейт: 7805 Кбит/сек
Номинальный битрейт: 9610 Кбит/сек
Ширина: 720 пикс.
Высота: 576 пикс.
Соотношение сторон: 4:3
Частота кадров: 25,000 кадр/сек
Стандарт вещания: PAL
Цветовое пространство: YUV
Подвыборка цветности: 4:2:0
Битовая глубина: 8 бит
Тип развёртки: Прогрессивная
Порядок развёртки: Нижнее поле первое
Метод сжатия: С потерями
Бит/(Пиксели*Кадры): 0.753
Размер потока: 181 Мбайт (95%)
Библиотека кодирования: Created by Nero

Аудио
Идентификатор: 192 (0xC0)
Формат: MPEG Audio
Версия формата: Version 1
Профиль формата: Layer 2
Вид битрейта: Постоянный
Битрейт: 224 Кбит/сек
Канал(ы): 2 канала(ов)
Частота: 48,0 КГц
Метод сжатия: С потерями
Задержка видео: -40 мс.
Размер потока: 5,20 Мбайт (3%)











Поделиться:




реклама партнёра


Вернуться к началу
 Профиль Отправить личное сообщение  
 
   Похожие торренты   Автор   Торрент   Размер 
В этой теме нет новых непрочитанных сообщений. Сборник - Главная дискотека марта №2 (2017) MP3

salma3

1312 | 218

671.19 МБ

В этой теме нет новых непрочитанных сообщений. Сборник - 8 марта. Хит-парад для любимых [2015, Pop, Dance, MP3]

Dracon

75 | 3

855.63 МБ

В этой теме нет новых непрочитанных сообщений. Ключи для ESET, Kaspersky, Avast, Dr.Web, Avira [от 26 марта] (2017) PC

salma3

137 | 173

2.86 МБ

В этой теме нет новых непрочитанных сообщений. Ключи для ESET, Kaspersky, Avast, Dr.Web, Avira [от 19 марта] (2017) PC

salma3

202 | 204

2.86 МБ

В этой теме нет новых непрочитанных сообщений. Ключи для ESET, Kaspersky, Avast, Dr.Web, Avira [от 13 марта] (2017) PC

salma3

156 | 92

2.93 МБ

В этой теме нет новых непрочитанных сообщений. Сборник - Зайцев.Нет - Лучшие Новинки Марта [Pop, Dance, Rock, 2017] MP3

salma3

3553 | 406

410.44 МБ

В этой теме нет новых непрочитанных сообщений. С 8 марта, мужчины! (Мелодрама, комедия, 2014) DVDRip-AVC от ExKinoRay | Лицензия

marya111

39 | 4

1.46 ГБ


Начать новую тему Ответить на тему  [ 1 сообщение ] 




Для Мосгорсуда, Роскомнадзора и рекламодателей:: mosgorsud-torrent[собачка]yandex.ru