Торрент файл
скачать торрент магнет ссылка Добавлен: 08 янв 2012, 04:04
Размер: 4.11 ГБ
Сидеров: 0
Личеров: 9
Автор

СообщениеДобавлено: 08 янв 2012, 04:04 

Не в сети
Супермодератор
Аватара пользователя
Дата регистрации:
22 май 2010, 11:03
Возраст: 31
Спасибо: 7509 / 13
Сообщения: 49940
Татьяна Овсиенко - День Города в г. Красноуральске (20 июля 1996 г.)


Формат: DVD5, DVD Video, MPEG2, AC3
Песня: День Города в г. Красноуральске (20 июля 1996 г.)
Жанр: Рор
Продолжительность: 01:18:34
Год выпуска: 1996

Видео: 720х576 (PAL 4:3), 25 fps, MPEG-2, ~6984 kbps avg, 0.674 bit/pixel
Аудио: 48 kHz, AC-3 , 2 ch, 256.00 kbps avg

Доп. информация: Выступление в г. Красноуральск Свердловской области на Дне Города 20 июля 1996 г. Запись того концерта, сделана на VHS-камеру, после сконвертировано на DVD
Треклист:
1. Вступление
2. Звезда эстрады (Репортер)
3. Бессовестный
4. По одному тебе (Всю жизнь)
5. Как ты смел
6. Дальнобойщик
7. Капитан
8. Все, что я хочу рассказать тебе
9. Женское счастье
10. Морозов
11. Давай попробуем
12. Надо влюбиться
13. Школьная пора
14. Давай оставим все как есть
15. Вова-барабанщик
16. Запомни меня молодой и красивой

Ведущий: Валерий Москалев



Общее
Формат: MPEG-PS
Общий поток: 7387 Кбит/сек

Видео
Идентификатор: 224 (0xE0)
Формат: MPEG Video
Версия формата: Version 2
Профиль формата: Main@Main
Параметр BVOP формата: Да
Параметр матрицы формата: По умолчанию
Вид битрейта: Переменный
Битрейт: 6984 Кбит/сек
Номинальный битрейт: 9400 Кбит/сек
Ширина: 720 пикс.
Высота: 576 пикс.
Соотношение сторон: 4:3
Частота кадров: 25,000 кадр/сек
Стандарт вещания: PAL
Цветовое пространство: YUV
Подвыборка цветности: 4:2:0
Битовая глубина: 8 бит
Тип развёртки: Чересстрочная
Порядок развёртки: Верхнее поле первое
Метод сжатия: С потерями
Бит/(Пиксели*Кадры): 0.674
Размер потока: 968 Мбайт (95%)

Аудио
Идентификатор: 128 (0x80)
Формат: AC-3
Формат/Информация: Audio Coding 3
Расширение режима: CM (complete main)
Вид битрейта: Постоянный
Битрейт: 256 Кбит/сек
Канал(ы): 2 канала(ов)
Расположение каналов: Front: L R
Частота: 48,0 КГц
Битовая глубина: 16 бит
Метод сжатия: С потерями
Задержка видео: -80 мс.
Размер потока: 35,5 Мбайт (3%)











Поделиться:




реклама партнёра


Вернуться к началу
 Профиль Отправить личное сообщение  
 
   Похожие торренты   Автор   Торрент   Размер 
В этой теме нет новых непрочитанных сообщений. Einsturzende Neubauten - Ende Neu [1996, 1996, MP3]

PriZraK

0 | 1

57.25 МБ

В этой теме нет новых непрочитанных сообщений. Жертва ягуара / Prey of The Jaguar [Боевик, 1996] DVD5, Mvo+Avo

salma3

2 | 5

4.37 ГБ

В этой теме нет новых непрочитанных сообщений. Саботаж / Sabotage [боевик, триллер, драма, 1996] DVD5, Mvo

salma3

8 | 5

3.83 ГБ

В этой теме нет новых непрочитанных сообщений. Подарок на Рождество / Jingle All The Way [Детский, комедия, семейный, 1996] DVD5, Mvo [Лицензия]

salma3

21 | 7

4.24 ГБ

В этой теме нет новых непрочитанных сообщений. Романтические города: Карнавал в Венеции / Romantic City: Carnival in Venice (Жан Люк Беррау) [2010, Документальный, демо, релакс, видовой, путешествие, туризм, города, BDRip 720p]

Nickolas3435

21 | 6

2.16 ГБ

В этой теме нет новых непрочитанных сообщений. Mr. Big - Hey Man [1996, Hard Rock, MP3]

PriZraK

0 | 1

114.39 МБ

В этой теме нет новых непрочитанных сообщений. Revolter - Datamerica [1996, Industrial, MP3]

PriZraK

0 | 1

38.61 МБ


Начать новую тему Ответить на тему  [ 1 сообщение ] 




Для Мосгорсуда, Роскомнадзора и рекламодателей:: mosgorsud-torrent[собачка]yandex.ru