Торрент файл
скачать торрент магнет ссылка Добавлен: 08 янв 2012, 04:03
Размер: 4.36 ГБ
Сидеров: 1
Личеров: 6
Автор

СообщениеДобавлено: 08 янв 2012, 04:03 

Не в сети
Супермодератор
Аватара пользователя
Дата регистрации:
22 май 2010, 11:03
Возраст: 31
Спасибо: 7509 / 13
Сообщения: 49940
Judas Priest - Demolition/Live In London

Формат: DVD5 (сжатый), DVD Video, MPEG2, AC3
Песня: Demolition/Live In London
Жанр: Heavy Metal
Продолжительность: 01:31:32
Год выпуска: 2002
Видео: MPEG 2 VIDEO, 720*576( PAL 16:9), 25.00 fps,~ 6521 kbps avg, 0.629 bit/pixel
Аудио #1: 48.0 khz, AC 3, 2 ch, 224 kbps avg
Аудио #2: 48.0 khz, AC 3, 6 ch, 448 kbps avg
Доп. информация: Концерт в Лондоне. 19 декабря 2001 года.

Удалил: предостережение, заставку, demolition time, soundcheck. Видео сжато на 16%
    Состав
Tim "Ripper" Owens - vocals
Glenn Tipton - guitars
Kik Dowining - guitars
Jan Hill - bass
Scott Travis - drums
    Треклист
01. Metal Gods
02. Touch Of Evil
03. Blood Stained
04. Victim Of Changes
05. One on One
06. Running Wild
07. Ripper
08. Diamonds And Rust
09. Feed On Me
10. Burn In Hell
11. Hell Is Home
12. Breaking The Law
13. Desert Plains
14. Turbo Lover
15. Painkiller
16. Electric Eye
17. United
18. Living After Midnight
19. Hell Bent For Leather
Title: Judas Priest - Live In London
Size: 4.36 Gb ( 4 571 134,00 KBytes ) - DVD-5
Enabled regions: 1, 2, 3, 4, 5, 6, 7, 8

VTS_01 :
Play Length: 01:31:32
Video: PAL 16:9 (720x576) VBR, Auto Letterboxed
Audio:
English, AC3, 2/0 (L,R) ch, 224 kbps, Delay 0 mSec
English, AC3, 3/2 (L,C,R,SL,SR)+LFE ch, 448 kbps, Delay 0 mSec

VTS_02 :
Play Length: 00:00:00
Video: PAL 16:9 (720x576) VBR, Auto Letterboxed
Audio:
English (Dolby AC3, 2 ch)

VTS_03 :
Play Length: 00:00:00
Video: PAL 16:9 (720x576) VBR, Auto Letterboxed
Audio:
English (Dolby AC3, 2 ch)

* Menus Information *

VIDEO_TS Menu
Video:
NTSC 4:3 (720x480) VBR
Auto Pan&Scan, Auto Letterboxed
English Language Unit :
Title Menu

VTS_01 Menu
Video:
PAL 16:9 (720x576) VBR
Auto Letterboxed
Audio:
Not specified (Dolby AC3, 2 ch)
English Language Unit :
Root Menu

VTS_02 Menu
Video:
PAL 4:3 (720x576) VBR
English Language Unit :
Root Menu

VTS_03 Menu
Video:
PAL 4:3 (720x576) VBR
English Language Unit :
Root Menu
Общее
Полное имя: D:\Torrents\Download\Judas Priest - Live In London\VIDEO_TS\VTS_01_1.VOB
Формат: MPEG-PS
Размер файла: 1024 Мбайт
Продолжительность: 19 м.
Общий поток: 7339 Кбит/сек

Видео
Идентификатор: 224 (0xE0)
Формат: MPEG Video
Версия формата: Version 2
Профиль формата: Main@Main
Параметр BVOP формата: Да
Параметр матрицы формата: По умолчанию
Продолжительность: 19 м.
Вид битрейта: Переменный
Битрейт: 6521 Кбит/сек
Номинальный битрейт: 9800 Кбит/сек
Ширина: 720 пикс.
Высота: 576 пикс.
Соотношение сторон: 16:9
Частота кадров: 25,000 кадр/сек
Стандарт вещания: PAL
Цветовое пространство: YUV
Подвыборка цветности: 4:2:0
Битовая глубина: 8 бит
Тип развёртки: Чересстрочная
Порядок развёртки: Верхнее поле первое
Метод сжатия: С потерями
Бит/(Пиксели*Кадры): 0.629
Размер потока: 910 Мбайт (89%)

Аудио #1
Идентификатор: 128 (0x80)
Формат: AC-3
Формат/Информация: Audio Coding 3
Расширение режима: CM (complete main)
Продолжительность: 19 м.
Вид битрейта: Постоянный
Битрейт: 224 Кбит/сек
Каналы: 2 канала
Расположение каналов: Front: L R
Частота: 48,0 КГц
Битовая глубина: 16 бит
Метод сжатия: С потерями
Размер потока: 31,3 Мбайт (3%)

Аудио #2
Идентификатор: 129 (0x81)
Формат: AC-3
Формат/Информация: Audio Coding 3
Расширение режима: CM (complete main)
Продолжительность: 19 м.
Вид битрейта: Постоянный
Битрейт: 448 Кбит/сек
Каналы: 6 каналов
Расположение каналов: Front: L C R, Side: L R, LFE
Частота: 48,0 КГц
Битовая глубина: 16 бит
Метод сжатия: С потерями
Размер потока: 62,5 Мбайт (6%)

Меню











[b]Поделиться:




реклама партнёра


Вернуться к началу
 Профиль Отправить личное сообщение  
 
   Похожие торренты   Автор   Торрент   Размер 
В этой теме нет новых непрочитанных сообщений. Judas Priest - Epitaph (Live) [2013, Heavy Metal, MP3]

PriZraK

0 | 1

321.77 МБ

В этой теме нет новых непрочитанных сообщений. Judas Priest - March of the Damned (Single) [19.05.2014, Heavy Metal, MP3]

PriZraK

2 | 2

7.87 МБ

В этой теме нет новых непрочитанных сообщений. Judas Priest - Redeemer of Souls (Single) [29.04.2014, Heavy Metal, MP3]

PriZraK

1 | 1

9.38 МБ

В этой теме нет новых непрочитанных сообщений. Judas Priest - Greatest Hits (2CD) [2012, Heavy Metal, Hard Rock, MP3]

PriZraK

0 | 1

354.42 МБ

В этой теме нет новых непрочитанных сообщений. Judas Priest - Redeemer Of Souls (Deluxe Edition) [2014, Heavy Metal, MP3]

PriZraK

25 | 3

191.96 МБ

В этой теме нет новых непрочитанных сообщений. Judas Priest - Screaming For Vengeance (Special 30th Anniversary Edition) [2012, Heavy Metal, MP3]

PriZraK

0 | 1

162.83 МБ

В этой теме нет новых непрочитанных сообщений. VA - Tribute To Judas Priest - Collection (14 CD) [1996-2010, Heavy, Power, Black, Progressive Feath, Thrash, Golk, Industrial Metal, MP3]

PriZraK

4 | 5

1.57 ГБ


Начать новую тему Ответить на тему  [ 1 сообщение ] 




Для Мосгорсуда, Роскомнадзора и рекламодателей:: mosgorsud-torrent[собачка]yandex.ru