Торрент файл
скачать торрент магнет ссылка Добавлен: 08 янв 2012, 04:03
Размер: 3.69 ГБ
Сидеров: 1
Личеров: 8
Автор

СообщениеДобавлено: 08 янв 2012, 04:03 

Не в сети
Супермодератор
Аватара пользователя
Дата регистрации:
22 май 2010, 11:03
Возраст: 31
Спасибо: 7509 / 13
Сообщения: 49940
Iron Maiden - 12 Wasted Years

Формат: DVD5, DVD Video, MPEG2, AC3
Песня: 12 Wasted Years
Жанр: Heavy Metal
Продолжительность: 01:29:44
Год выпуска: 1987
Видео: MPEG 2 VIDEO, 720*480, (NTSC 4:3), 29.97 fps, ~4548 kbps avg, 0,439 bit/pixel
Аудио #1: 48,0 khz, AC-3, 2 ch, 192 kbps avg
Аудио #2: 48.0 khz, AC 3, 6 ch, 448 kbps avg
Доп. информация: DVD включает записи концертных выступлений, промо клипы, интервью музыкантов, менеджмента группы. А также: биография, дискография, фотогалерея.
    Треклист
01. Stranger in a Strange Land (promo clip)
02. Charlotte the Harlot (live 1980)
03. Running Free (live 1980)
04. Women in Uniform (promo clip)
05. Murders In The Rue Morgue (live 1982)
06. Children of the Damned (live 1982)
07. The Number of the Beast (live 1985)
08. Total Eclipse (live 1982)
09. Iron Maiden (live 1983)
10. Sanctuary (live 1982)
11. The Prisoner (live 1982)
12. 22, Acacia Avenue (live 1983)
13. Wasted Years (live 1986)
14. The Trooper (live 1985)
Title: Iron Maiden - 12 Wasted Years
Size: 3.69 Gb ( 3 873 062,00 KBytes ) - DVD-5
Enabled regions: 1, 2, 3, 4, 5, 6

VTS_01 :
Play Length: 01:29:44
Video: NTSC 4:3 (720x480) VBR
Audio:
English, AC3, 2/0 (L,R) ch, 192 kbps, Delay 119 mSec
English, AC3, 3/2 (L,C,R,SL,SR)+LFE ch, 448 kbps, Delay 248 mSec

Subtitles:
Portugues
Espanol

* Menus Information *

VIDEO_TS Menu
Video:
NTSC 4:3 (720x480) VBR
English Language Unit :
Title Menu

VTS_01 Menu
Video:
NTSC 4:3 (720x480) VBR
Audio:
Not specified (Dolby AC3, 2 ch)
English Language Unit :
Root Menu
Subpicture Menu
Audio Menu
Chapter (PTT) Menu
Общее
Полное имя: D:\Torrents\Download\Iron Maiden - 12 Wasted Years\VIDEO_TS\VTS_01_1.VOB
Формат: MPEG-PS
Размер файла: 1024 Мбайт
Продолжительность: 27 м.
Общий поток: 5294 Кбит/сек

Видео
Идентификатор: 224 (0xE0)
Формат: MPEG Video
Версия формата: Version 2
Профиль формата: Main@Main
Параметр BVOP формата: Да
Параметр матрицы формата: По умолчанию
Параметры GOP формата: M=3, N=15
Продолжительность: 27 м.
Вид битрейта: Переменный
Битрейт: 4548 Кбит/сек
Номинальный битрейт: 6000 Кбит/сек
Ширина: 720 пикс.
Высота: 480 пикс.
Соотношение сторон: 4:3
Частота кадров: 29,970 кадр/сек
Стандарт вещания: NTSC
Цветовое пространство: YUV
Подвыборка цветности: 4:2:0
Битовая глубина: 8 бит
Тип развёртки: Чересстрочная
Порядок развёртки: Верхнее поле первое
Метод сжатия: С потерями
Бит/(Пиксели*Кадры): 0.439
Размер потока: 880 Мбайт (86%)

Аудио #1
Идентификатор: 128 (0x80)
Формат: AC-3
Формат/Информация: Audio Coding 3
Расширение режима: CM (complete main)
Продолжительность: 27 м.
Вид битрейта: Постоянный
Битрейт: 192 Кбит/сек
Каналы: 2 канала
Расположение каналов: Front: L R
Частота: 48,0 КГц
Битовая глубина: 16 бит
Метод сжатия: С потерями
Задержка видео: 53 мс.
Размер потока: 37,1 Мбайт (4%)

Аудио #2
Идентификатор: 129 (0x81)
Формат: AC-3
Формат/Информация: Audio Coding 3
Расширение режима: CM (complete main)
Продолжительность: 27 м.
Вид битрейта: Постоянный
Битрейт: 448 Кбит/сек
Каналы: 6 каналов
Расположение каналов: Front: L C R, Side: L R, LFE
Частота: 48,0 КГц
Битовая глубина: 16 бит
Метод сжатия: С потерями
Задержка видео: 182 мс.
Размер потока: 86,6 Мбайт (8%)

Текст #1
Идентификатор: 32 (0x20)
Формат: RLE
Формат/Информация: Run-length encoding

Текст #2
Идентификатор: 33 (0x21)
Формат: RLE
Формат/Информация: Run-length encoding

Меню









[b]Поделиться:




реклама партнёра


Вернуться к началу
 Профиль Отправить личное сообщение  
 
   Похожие торренты   Автор   Торрент   Размер 
В этой теме нет новых непрочитанных сообщений. Iron Maidnem (Iron Maiden Tribute band) - 10 Wasted Years [2006, Heavy Metal, MP3]

PriZraK

2 | 1

167.34 МБ

В этой теме нет новых непрочитанных сообщений. Iron Maiden - Maiden England '88 [2013, Heavy Metal, MP3]

PriZraK

0 | 1

230.51 МБ

В этой теме нет новых непрочитанных сообщений. VA - Iron Maiden. Tribute The Soldier Has Returned [2011, Heavy Metal, MP3]

PriZraK

2 | 1

115.97 МБ

В этой теме нет новых непрочитанных сообщений. Iron Maiden - Coming Moscow (2 CD) (Bootleg) [2011, Heavy Metal, MP3]

PriZraK

0 | 1

259.12 МБ

В этой теме нет новых непрочитанных сообщений. VA - A Special Tribute to Iron Maiden [2011, Hard Rock, Heavy Metal, MP3]

PriZraK

0 | 1

159.36 МБ

В этой теме нет новых непрочитанных сообщений. Iron Maiden - Brave New World (Japan Edition) [2014, Heavy Metal, MP3]

PriZraK

33 | 3

314.58 МБ

В этой теме нет новых непрочитанных сообщений. Iron Maiden - Live After Death (2CD, Remastered EMI Records Ltd., 1998) [1985, Heavy Metal, MP3]

PriZraK

1 | 1

251.92 МБ


Начать новую тему Ответить на тему  [ 1 сообщение ] 




Для Мосгорсуда, Роскомнадзора и рекламодателей:: mosgorsud-torrent[собачка]yandex.ru