Торрент файл
скачать торрент магнет ссылка Добавлен: 08 янв 2012, 04:03
Размер: 4.35 ГБ
Сидеров: 0
Личеров: 10
Автор

СообщениеДобавлено: 08 янв 2012, 04:03 

Не в сети
Супермодератор
Аватара пользователя
Дата регистрации:
22 май 2010, 11:03
Возраст: 32
Спасибо: 7696 / 13
Сообщения: 49871
Reflex - Non Stop


Формат: DVD5, DVD Video, MPEG2, AC3
Песня: Non Stop
Жанр: Pop
Продолжительность: 01:52:15
Год выпуска: 2006

Видео: 720х576 (PAL 4:3), 25 fps, MPEG-2, ~4953 kbps avg, 0.478 bit/pixel
Аудио: 48 kHz, AC-3 , 2 ch, 256.00 kbps avg

Доп. информация: В 2003 году становится ясно, что успехи группы Reflex и певицы Ирины Нельсон не могут остаться не замеченными в западных странах. «Международный бум» вокруг Reflex начался в середине 2003 г. В августе Reflex вместе с группой «Тату» представил Россию на международном музыкальном фестивале Pop Komm, проходившем в немецком городе Кельне. После выступления к ним подошел гуру танцпола Пол Ван Дайк, сказав, что очень впечатлен проектом Reflex, в особенности, вокалом Ирины Нельсон. Увлеченный идеей дальнейшего сотрудничества, Ван Дайк передал компании Reflexmusic эксклюзивные права на выпуск своего альбома «Reflections» в России. Кроме того, Пол cделал два ремикса на песни Reflex. В 2003 англоязычная версия песни «Сойти с ума» — «I Lose My Mind» покорила европейскую публику.
Весной 2004 года группа подписала контракт с немецкой компанией Babelspark и компанией Sony music о выпуске нового сингла Reflex «I Can`t Live Without You». Диск поступил в продажу во все крупнейшие музыкальные магазины Германии, Австрии и Швейцарии добрался до 11 места в чарте видеоклипов известного телеканала VIVA и до 4 места в чартах продаж Германии.
2003 — 2004— В этом период у группы выходит сразу три альбома:"Я тебя всегда буду ждать", «Это любовь», «Non stop».


1 Дальний свет
2 Встречай новый день
3 Сойти с ума
4 Сойти с ума (MIX)
5 Первый раз
6 Первый раз (Акустическая версия)
7 Я тебя всегда буду ждать
8 Я тебя всегда буду ждать (Remix)
9 Мне трудно говорить
10 Мне трудно говорить (Remix)
11 Это Новый Год
12 Падали звёзды
13 Может быть показалось
14 Может быть показалось (Симфоническая версия)
15 Non stop
+ Бонус (съемки клипа, не вошедшие в клипы материаллы)

Общее
Формат: MPEG-PS
Общий поток: 5315 Кбит/сек

Видео
Идентификатор: 224 (0xE0)
Формат: MPEG Video
Версия формата: Version 2
Профиль формата: Main@Main
Параметр BVOP формата: Да
Параметр матрицы формата: По умолчанию
Вид битрейта: Переменный
Битрейт: 4953 Кбит/сек
Номинальный битрейт: 9800 Кбит/сек
Ширина: 720 пикс.
Высота: 576 пикс.
Соотношение сторон: 4:3
Частота кадров: 25,000 кадр/сек
Стандарт вещания: PAL
Цветовое пространство: YUV
Подвыборка цветности: 4:2:0
Битовая глубина: 8 бит
Тип развёртки: Чересстрочная
Порядок развёртки: Верхнее поле первое
Метод сжатия: С потерями
Бит/(Пиксели*Кадры): 0.478
Размер потока: 127 Мбайт (93%)

Аудио
Идентификатор: 128 (0x80)
Формат: AC-3
Формат/Информация: Audio Coding 3
Расширение режима: CM (complete main)
Вид битрейта: Постоянный
Битрейт: 256 Кбит/сек
Канал(ы): 2 канала(ов)
Расположение каналов: Front: L R
Частота: 48,0 КГц
Битовая глубина: 16 бит
Метод сжатия: С потерями
Размер потока: 6,59 Мбайт (5%)












Поделиться:




реклама партнёра


Вернуться к началу
 Профиль Отправить личное сообщение  
 
   Похожие торренты   Автор   Торрент   Размер 
В этой теме нет новых непрочитанных сообщений. Остановка / Rest Stop / Rest Stop: Dead Ahead [ужасы, триллер, 2006] BDRip, Mvo

salma3

21 | 3

1.45 ГБ

В этой теме нет новых непрочитанных сообщений. Остановка / Rest Stop [ужасы, триллер, 2006] BDRip 720p, Dvo [iPad]

salma3

34 | 6

2.01 ГБ

В этой теме нет новых непрочитанных сообщений. [DigitalPlayground.com] Zara DuRose - Gag Reflex (05.06.2017) [2017 г., Blowjob, Deepthroat, Fanny, Uniform, Vaginal, Big Tits, Facial]

salma3

0 | 0

325.34 МБ

В этой теме нет новых непрочитанных сообщений. [Throated.com / MyXXXPass.com] Riley Reyes (Gag Reflex / 17.10.2017) [2017 г., Facial,Blonde,Blowjob,Small Tits,Deepthroat,Gagging,Saliva,Cum in mouth,Monster Cock,Oral, 720p]

salma3

10 | 3

386.93 МБ

В этой теме нет новых непрочитанных сообщений. [Throated.com / MyXXXPass.com] Riley Reyes (Gag Reflex / 17.10.2017) [2017 г., Facial,Blonde,Blowjob,Small Tits,Deepthroat,Gagging,Saliva,Cum in mouth,Monster Cock,Oral, 1080p]

salma3

8 | 2

847.72 МБ

В этой теме нет новых непрочитанных сообщений. [DickDrainers XXX / Clips4Sale.com] Alex More - 12 Inches of Nutritious MONSTER MEAT For Dinner! (6/9/17) [2017 г., Bbc, Puke, Gagging, Ball Sucking/licking, Face Fucking, Interracial Domination, Small Tits, Gag Reflex, Slut Training , 1080

salma3

8 | 3

3.1 ГБ

В этой теме нет новых непрочитанных сообщений. [AllFineGirls.com] Nelya - Can't Stop The Feeling (18.10.2016) [All sex]

friizze

1 | 1

349.51 МБ


Начать новую тему Ответить на тему  [ 1 сообщение ] 




Для Мосгорсуда, Роскомнадзора и рекламодателей:: mosgorsud-torrent[собачка]yandex.ru