Торрент файл
скачать торрент магнет ссылка Добавлен: 08 янв 2012, 04:03
Размер: 7.92 ГБ
Сидеров: 3
Личеров: 8
Автор

СообщениеДобавлено: 08 янв 2012, 04:03 

Не в сети
Супермодератор
Аватара пользователя
Дата регистрации:
22 май 2010, 11:03
Возраст: 31
Спасибо: 7508 / 13
Сообщения: 49940
Amorphis - Forging the Land of Thousand Lakes: The Oulu Show

Формат: BDRip, MKV, H.264, AC3
Песня: Forging the Land of Thousand Lakes: The Oulu Show
Жанр: Doom,Progressive, Death Metal
Продолжительность: 01:35:52
Год выпуска: 2010
Видео: 1 920 х 1 080р, (16:9 , 4:2:0), AVC, at 25.000 fps, 11 Mbps, 0.220 bits/pixel
Аудио: 48 kHz, AC-3, 6 ch (Front: L C R, Side: L R, LFE), 640 Kbps
Доп. информация:
Треклист:
====================
    1. Intro & Silver Bride
    2. Sampo
    3. Towards and Against
    4. The Castaway
    5. Smithereens / The Smoke
    6. Majestic Beast
    7. Alone
    8. Silent Waters
    9. Divinity
    10. Elegy Medley (Against Widows / Cares / On Rich and Poor)
    11. From the Heaven of My Heart
    12. Sky is Mine
    13. Magic and Mayhem / Black Winter Day
    14. Sign from the Northside
    15. House of Sleep
    16. My Kantele & Outro





Общее
Уникальный идентификатор: 228515166677251437433031440575349451492 (0xABEA6B93DE320FD1BD167EFE6F80EAE4)
Полное имя: F:\Tfile - rs Bandito music\1 Архивы\Amorphis - The Oulu Show.mkv
Формат: Matroska
Версия формата: Version 2
Размер файла: 7,92 Гбайт
Продолжительность: 1 ч. 35 м.
Общий поток: 11,8 Мбит/сек
Дата кодирования: UTC 2011-10-06 04:19:25
Программа кодирования: mkvmerge v5.0.0 ('Die Wahre Liebe') built on Sep 25 2011 20:33:49
Библиотека кодирования: libebml v1.2.2 + libmatroska v1.3.0

Видео
Идентификатор: 1
Формат: AVC
Формат/Информация: Advanced Video Codec
Профиль формата: High@L4.1
Параметр CABAC формата: Да
Параметр ReFrames формата: 4 кадра
Идентификатор кодека: V_MPEG4/ISO/AVC
Продолжительность: 1 ч. 35 м.
Битрейт: 11,0 Мбит/сек
Ширина: 1920 пикс.
Высота: 1080 пикс.
Соотношение сторон: 16:9
Частота кадров: 24,000 кадр/сек
Цветовое пространство: YUV
Подвыборка цветности: 4:2:0
Битовая глубина: 8 бит
Тип развёртки: Прогрессивная
Бит/(Пиксели*Кадры): 0.220
Размер потока: 7,34 Гбайт (93%)
Библиотека кодирования: x264 core 118 r2085 8a62835
Настройки программы: cabac=1 / ref=4 / deblock=1:-1:-1 / analyse=0x3:0x113 / me=umh / subme=9 / psy=1 / psy_rd=1.00:0.00 / mixed_ref=1 / me_range=32 / chroma_me=1 / trellis=1 / 8x8dct=1 / cqm=0 / deadzone=21,11 / fast_pskip=1 / chroma_qp_offset=-2 / threads=6 / sliced_threads=0 / nr=0 / decimate=1 / interlaced=0 / bluray_compat=0 / constrained_intra=0 / bframes=3 / b_pyramid=2 / b_adapt=1 / b_bias=0 / direct=3 / weightb=1 / open_gop=0 / weightp=2 / keyint=250 / keyint_min=24 / scenecut=40 / intra_refresh=0 / rc_lookahead=40 / rc=crf / mbtree=1 / crf=21.0 / qcomp=0.60 / qpmin=0 / qpmax=69 / qpstep=4 / ip_ratio=1.40 / aq=1:1.00
Язык: English

Аудио
Идентификатор: 2
Формат: AC-3
Формат/Информация: Audio Coding 3
Расширение режима: CM (complete main)
Идентификатор кодека: A_AC3
Продолжительность: 1 ч. 35 м.
Вид битрейта: Постоянный
Битрейт: 640 Кбит/сек
Каналы: 6 каналов
Расположение каналов: Front: L C R, Side: L R, LFE
Частота: 48,0 КГц
Битовая глубина: 16 бит
Метод сжатия: С потерями
Размер потока: 439 Мбайт (5%)

Меню
00:00:00.000: :Intro & Silver Bride
00:04:30.000: :Sampo
00:10:54.000: :Towards And Against
00:16:17.000: :The Castaway
00:23:00.000: :Smithereens / The Smoke
00:28:36.000: :Majestic Beast
00:33:09.000: :Alone
00:39:20.000: :Silent Waters
00:45:11.000: ivinity
00:49:54.000: :Elegy Medley (Against Windows / Cares / On Rich And Poor)
00:58:10.000: :From The Heaven Of My Heart
01:03:57.000: :Sky Is Mine
01:08:40.000: :Magic And Mayhem / Black Winter Day
01:15:05.000: :Sign From The Northside
01:21:24.000: :House Of Sleep
01:26:48.000: :My Kantele & Outro



Release Group: [/field]
Поделиться:




реклама партнёра


Вернуться к началу
 Профиль Отправить личное сообщение  
 
   Похожие торренты   Автор   Торрент   Размер 
В этой теме нет новых непрочитанных сообщений. Amorphis - Circle (Japanese + Mailorder Edition) [2013, Progressive Melodic Death Metal, Melodic Doom, Melodic Metal, MP3]

PriZraK

14 | 3

168.62 МБ

В этой теме нет новых непрочитанных сообщений. Maestus - Scarlet Lakes [2013, Atmospheric Funeral Doom, Tragic Doom, Black Metal, MP3]

PriZraK

0 | 1

75.22 МБ

В этой теме нет новых непрочитанных сообщений. Elliott's Keep - Nascentes Morimur [2013, Progressive Doom, Epic Doom, Death Metal, MP3]

PriZraK

0 | 1

103.3 МБ

В этой теме нет новых непрочитанных сообщений. Provocation - Forging The Gods [2012, Grindcore,Brutal Death Metal, MP3]

PriZraK

0 | 1

100.27 МБ

В этой теме нет новых непрочитанных сообщений. Thee Orakle - Smooth Comforts False [2012, Progressive Death Metal,Doom Metal,Gothic Metal, MP3]

PriZraK

1 | 1

114.43 МБ

В этой теме нет новых непрочитанных сообщений. Amorphis - The Beginning of Times [2011, Progressive, Gothic Metal, MP3]

PriZraK

0 | 1

135.15 МБ

В этой теме нет новых непрочитанных сообщений. The Prophecy - Salvation [2013, Progressive Doom Metal, Death Metal, MP3]

PriZraK

0 | 1

113.3 МБ


Начать новую тему Ответить на тему  [ 1 сообщение ] 




Для Мосгорсуда, Роскомнадзора и рекламодателей:: mosgorsud-torrent[собачка]yandex.ru