Торрент файл
скачать торрент магнет ссылка Добавлен: 08 янв 2012, 04:02
Размер: 11.84 ГБ
Сидеров: 11
Личеров: 4
Автор

СообщениеДобавлено: 08 янв 2012, 04:02 

Не в сети
Супермодератор
Аватара пользователя
Дата регистрации:
22 май 2010, 11:03
Возраст: 32
Спасибо: 7690 / 13
Сообщения: 49871
VA - Rock Legends The Best Of 50`s 60`s 70`s from The Ed Sullivan Show

Формат: DVD5, DVD Video, MPEG2, AC3
Песня: Rock Legends The Best Of 50`s 60`s 70`s from The Ed Sullivan Show
Жанр: Rock
Продолжительность: 5 х ~ 00:45
Год выпуска: 2009
Видео: 720х576 (PAL 4:3, 4:2:0), MPEG Video(Version 2), at 25.000 fps, ~ 6 300 Kbps, ~ 0.609 bits/pixel
Аудио: 48 kHz, AC-3, 2 ch (Front: L R),256 Kbps
Доп. информация:


DVD-1
==================
    1 The Beatles - All My Loving 1:50 (1964)
    2 Elvis Presley - Heartbreak Hotel 1:08 (1957)
    3 The Doors - People Are Strange 2:36 (1967)
    4 Diana Ross & The Supremes - I'm Living In Shame 2:03 (1967)
    5 Creedence Clearwater Revival - Fortunate Son 2:03 (1969)
    6 The Beach Boys - Wendy 2:15 (1964)
    7 The Animals – Don’t Let Me Be Misunderstood 2:35 (1965)
    8 The Rolling Stones - (I Can't Get No) Satisfaction 2:54 (1966)
    9 The Animals - Bring It On Home To Me 2:53 (1965)
    10 Jerry Lee Lewis - Whole Lot Of Shakin' Goin' On 1:37 (1969)
    11 Elvis Presley - Hound Dog 2:45 (1956)
    12 James Brown - Papa's Got A Brand New Bag 0:41 (1966)
    - I Got You (I Feelgood) 1:21 (1966)
    13 The Temptations - Don't Look Back 2:18 (1967)
    14 Buddy Holly & The Crickets - Peggy Sue 2:01 (1957)
    15 Jerry Lee Lewis - What'd I Say 1:12 (1969)
    16 Fats Domino - Blueberry Hill 1:46 (1956)
    17 Diana Ross & The Supremes - Forever Came Today 3:24 (196
    18 Bill Haley & His Comets - Rock Around The Clock 2:08 (1955)
    19 Elvis Presley – Don’t Be Cruel 2:38 (1956)
DVD-2
=====================
    1 The Doors - Light My Fire (3:01) 1967
    2 Steppenwolf - Born To Be Wild (1:01) 1969
    - Magic Carpet Ride (1:24) 1969
    3 The Temptations - Psychedelic Shack (3:30) 1970
    4 Vanilla Fudge - You Keep Me Hanging On (4:27) 1968
    5 The Beatles - Help (1:45) 1967
    6 The Bee Gees - Words (3:1 1968
    7 The Byrds - Mr. Tambourine Man (2:15) 1965
    8 Creedence Clearwater Revival - Good Golly Miss Molly (2:46) 1969
    9 The Temptations - My Girl / (I Know) I'm Losing You (0:38/1:33) 1967
    10 Young Rascals - Good Lovin' (2:29) 1966
    11 The Turtles - Happy Together (3:06) 1967
    12 Spanky & Our Gang - Sunday Will Never Be The Same (2:00) 1967
    13 The 5th Dimension - Stoned Soul Picnic (3:29) 1971
    14 Young Rascals - Groovin' (2:4 1967
    15 Oliver - Good Morning Starshine (1:36) 1970
    16 The Beach Boys - Good Vibrations (3:25) 1968
DVD-3
======================
    1 Ray Charles – Eleanor Rigby (3:14) 1968
    2 Al Hirt – Java (2:00) 1963
    3 Miriam Makeba – Pata Pata (3:31) 1967
    4 Bobby Darin – Beyond The Sea (2:2 1960
    5 Jose Feliciano – Flight Of The Bumblebee (1:54) 1966
    6 The Mamas & The Papas – I Call Your Name (1:52) 1968
    7 Domenico Modugno - Volare (4:34) 1958
    8 The Temptations - You've Made Me So Very Happy (3:09) 1970
    9 Louis Armstrong - Mack The Knife (3:35) 1962
    10 Petula Clark - My Love (2:19) 1965
    11 Liza Minnelli - Sweet Blindness (3:35) 1968
    12 Everly Brothers - Wake Up, Little Susie (2:09) 1957
    13 Englebert Humperdinck - Les Bicyclettes Des Belsize (3:03) 1968
    14 Harry Belafonte - Jamaica Farewell (3:46) 1956
    15. Gilbert Becaud - What Now My Love (3:47) 1968
    16 Astrud Gilberto - Girl From Ipanema (2:1 1970
DVD-4
======================
    1 The Beatles - I Want To Hold Your Hand (1:45) 1964
    2 Petula Clark – Downtown (3:22) 1965
    3 The 4 Seasons - Big Girls Don't Cry (2:2 1962
    4 Tommy Janies & Shondells - Crimson And Clover (3:57) 1969
    5 Roy Orbison - Oh, Pretty Woman (3:09) 1968
    6 The Manias & The Papas - Monday, Monday (1:57) 1966
    7 Elvis Presley - Don't Be Cruel (2:0 1956
    8 Elvis Presley - Too Much (2:43) 1957
    9 Elvis Presley - When My Blue Moon Turns To Gold (2:54) 1957
    10 Elvis Presley - Hound Dog (1:09) 1957
    11 The Carpenters - (They Long To Be) Close To You (2:14) 1970
    12 Little Anthony & The Imperials - Hurt So Bad (2:33) 1965
    13 The Everly Brothers - All I Have To Do Is Dream (2:19) 1971
    14 Tommy Sands - Teen Age Crush (1:10) 1957
    15 The 5th Dimension - Wedding Bell Blues (2:46) 1969
    16 Elvis Presley - Love Me Tender (3:13) 1956
    17 Tommy Sands - Goin'steady (2:09) 1957
    18 The Beatles - From Me To You (1:16) 1964
DVD-5
==========================
    1 The Supremes - Come See About Me (2:25) 1964
    2 The Jackson 5 - I Want You Back (1:13) 1970
    ABC (1:36) 1970
    3 Four Tops - Reach Out, I'll Be There (3:23) 1966
    4 The Righteous Bros. - Turn On Your Love Light (1:51) 1965
    5 The Temptations - Run Away Child, Running Wild (3:39) 1969
    6 The Beatles - I Want To Hold Your Hand (1:45) 1964
    7 The Rolling Stones - Time Is On My Side (3:0 1964
    8 Herman's Hermits - Just A Little Bit Better (2:00) 1966
    9 The Animals - Shake (2:47) 1966
    10 Gerry & The Pacemakers - Ferry Cross The Mersey (2:20) 1965
    11 Cliff Richard - Do You Want To Dance? (2:00) 1963
    13 Jackie Wilson - Lonely Teardrops (3:05) 1962
    14 Marvin Gaye - Take This Heart Of Mine (2:55) 1966
    15 The Supremes - Up The Ladder To The Roof (3:13) 1970
    16 The 5th Dimension - Up, Up And Away (1:47) 1971
    17 The Temptations - Just My Imagination (Running Away With Me) (3:01) 1971











DVD-1
Общее
Полное имя: F:\Tfile - Видео релизы\Архив\Rock Legends The Best Of 50`s 60`s 70`s from The Ed Sullivan Show 2009\DVD 1\VIDEO_TS\VTS_02_1.VOB
Формат: MPEG-PS
Размер файла: 1024 Мбайт
Продолжительность: 21 м.
Общий поток: 6703 Кбит/сек

Видео
Идентификатор: 224 (0xE0)
Формат: MPEG Video
Версия формата: Version 2
Профиль формата: Main@Main
Параметр BVOP формата: Да
Параметр матрицы формата: Выборочная
Параметры GOP формата: M=3, N=12
Продолжительность: 21 м.
Вид битрейта: Переменный
Битрейт: 6313 Кбит/сек
Максимальный битрейт: 8000 Кбит/сек
Ширина: 720 пикс.
Высота: 576 пикс.
Соотношение сторон: 4:3
Частота кадров: 25,000 кадр/сек
Стандарт вещания: PAL
Цветовое пространство: YUV
Подвыборка цветности: 4:2:0
Битовая глубина: 8 бит
Тип развёртки: Чересстрочная
Порядок развёртки: Верхнее поле первое
Метод сжатия: С потерями
Бит/(Пиксели*Кадры): 0.609
Размер потока: 964 Мбайт (94%)

Аудио
Идентификатор: 189 (0xBD)-128 (0x80)
Формат: AC-3
Формат/Информация: Audio Coding 3
Расширение режима: CM (complete main)
Режим смешивания: DVD-Video
Продолжительность: 21 м.
Вид битрейта: Постоянный
Битрейт: 256 Кбит/сек
Каналы: 2 канала
Расположение каналов: Front: L R
Частота: 48,0 КГц
Битовая глубина: 16 бит
Метод сжатия: С потерями
Задержка видео: -80 мс.
Размер потока: 39,1 Мбайт (4%)

Меню

=====================================================

DVD-2

Общее
Полное имя: F:\Tfile - Видео релизы\Архив\Rock Legends The Best Of 50`s 60`s 70`s from The Ed Sullivan Show 2009\DVD 2\VIDEO_TS\VTS_02_1.VOB
Формат: MPEG-PS
Размер файла: 1024 Мбайт
Продолжительность: 21 м.
Общий поток: 6710 Кбит/сек

Видео
Идентификатор: 224 (0xE0)
Формат: MPEG Video
Версия формата: Version 2
Профиль формата: Main@Main
Параметр BVOP формата: Да
Параметр матрицы формата: Выборочная
Параметры GOP формата: M=3, N=12
Продолжительность: 21 м.
Вид битрейта: Переменный
Битрейт: 6320 Кбит/сек
Максимальный битрейт: 8000 Кбит/сек
Ширина: 720 пикс.
Высота: 576 пикс.
Соотношение сторон: 4:3
Частота кадров: 25,000 кадр/сек
Стандарт вещания: PAL
Цветовое пространство: YUV
Подвыборка цветности: 4:2:0
Битовая глубина: 8 бит
Тип развёртки: Чересстрочная
Порядок развёртки: Верхнее поле первое
Метод сжатия: С потерями
Бит/(Пиксели*Кадры): 0.610
Размер потока: 964 Мбайт (94%)

Аудио
Идентификатор: 189 (0xBD)-128 (0x80)
Формат: AC-3
Формат/Информация: Audio Coding 3
Расширение режима: CM (complete main)
Режим смешивания: DVD-Video
Продолжительность: 21 м.
Вид битрейта: Постоянный
Битрейт: 256 Кбит/сек
Каналы: 2 канала
Расположение каналов: Front: L R
Частота: 48,0 КГц
Битовая глубина: 16 бит
Метод сжатия: С потерями
Размер потока: 39,1 Мбайт (4%)

Меню

===========================================

DVD-3

Общее
Полное имя: F:\Tfile - Видео релизы\Архив\Rock Legends The Best Of 50`s 60`s 70`s from The Ed Sullivan Show 2009\VOL 3\VIDEO_TS\VTS_02_1.VOB
Формат: MPEG-PS
Размер файла: 1024 Мбайт
Продолжительность: 21 м.
Общий поток: 6628 Кбит/сек

Видео
Идентификатор: 224 (0xE0)
Формат: MPEG Video
Версия формата: Version 2
Профиль формата: Main@Main
Параметр BVOP формата: Да
Параметр матрицы формата: Выборочная
Параметры GOP формата: M=3, N=12
Продолжительность: 21 м.
Вид битрейта: Переменный
Битрейт: 6240 Кбит/сек
Максимальный битрейт: 8000 Кбит/сек
Ширина: 720 пикс.
Высота: 576 пикс.
Соотношение сторон: 4:3
Частота кадров: 25,000 кадр/сек
Стандарт вещания: PAL
Цветовое пространство: YUV
Подвыборка цветности: 4:2:0
Битовая глубина: 8 бит
Тип развёртки: Чересстрочная
Порядок развёртки: Верхнее поле первое
Метод сжатия: С потерями
Бит/(Пиксели*Кадры): 0.602
Размер потока: 964 Мбайт (94%)

Аудио
Идентификатор: 189 (0xBD)-128 (0x80)
Формат: AC-3
Формат/Информация: Audio Coding 3
Расширение режима: CM (complete main)
Режим смешивания: DVD-Video
Продолжительность: 21 м.
Вид битрейта: Постоянный
Битрейт: 256 Кбит/сек
Каналы: 2 канала
Расположение каналов: Front: L R
Частота: 48,0 КГц
Битовая глубина: 16 бит
Метод сжатия: С потерями
Размер потока: 39,5 Мбайт (4%)

Меню

===================================================

DVD-4

Общее
Полное имя: F:\Tfile - Видео релизы\Архив\Rock Legends The Best Of 50`s 60`s 70`s from The Ed Sullivan Show 2009\VOL 4\VIDEO_TS\VTS_03_1.VOB
Формат: MPEG-PS
Размер файла: 1024 Мбайт
Продолжительность: 21 м.
Общий поток: 6622 Кбит/сек

Видео
Идентификатор: 224 (0xE0)
Формат: MPEG Video
Версия формата: Version 2
Профиль формата: Main@Main
Параметр BVOP формата: Да
Параметр матрицы формата: Выборочная
Параметры GOP формата: M=3, N=12
Продолжительность: 21 м.
Вид битрейта: Переменный
Битрейт: 6234 Кбит/сек
Максимальный битрейт: 8000 Кбит/сек
Ширина: 720 пикс.
Высота: 576 пикс.
Соотношение сторон: 4:3
Частота кадров: 25,000 кадр/сек
Стандарт вещания: PAL
Цветовое пространство: YUV
Подвыборка цветности: 4:2:0
Битовая глубина: 8 бит
Тип развёртки: Чересстрочная
Порядок развёртки: Верхнее поле первое
Метод сжатия: С потерями
Бит/(Пиксели*Кадры): 0.601
Размер потока: 964 Мбайт (94%)

Аудио
Идентификатор: 189 (0xBD)-128 (0x80)
Формат: AC-3
Формат/Информация: Audio Coding 3
Расширение режима: CM (complete main)
Режим смешивания: DVD-Video
Продолжительность: 21 м.
Вид битрейта: Постоянный
Битрейт: 256 Кбит/сек
Каналы: 2 канала
Расположение каналов: Front: L R
Частота: 48,0 КГц
Битовая глубина: 16 бит
Метод сжатия: С потерями
Размер потока: 39,6 Мбайт (4%)

Меню

===================================================

DVD-5

Общее
Полное имя: F:\Tfile - Видео релизы\Архив\Rock Legends The Best Of 50`s 60`s 70`s from The Ed Sullivan Show 2009\VOL 5\VIDEO_TS\VTS_02_1.VOB
Формат: MPEG-PS
Размер файла: 1024 Мбайт
Продолжительность: 21 м.
Общий поток: 6651 Кбит/сек

Видео
Идентификатор: 224 (0xE0)
Формат: MPEG Video
Версия формата: Version 2
Профиль формата: Main@Main
Параметр BVOP формата: Да
Параметр матрицы формата: Выборочная
Параметры GOP формата: M=3, N=12
Продолжительность: 21 м.
Вид битрейта: Переменный
Битрейт: 6263 Кбит/сек
Максимальный битрейт: 8000 Кбит/сек
Ширина: 720 пикс.
Высота: 576 пикс.
Соотношение сторон: 4:3
Частота кадров: 25,000 кадр/сек
Стандарт вещания: PAL
Цветовое пространство: YUV
Подвыборка цветности: 4:2:0
Битовая глубина: 8 бит
Тип развёртки: Чересстрочная
Порядок развёртки: Верхнее поле первое
Метод сжатия: С потерями
Бит/(Пиксели*Кадры): 0.604
Размер потока: 964 Мбайт (94%)

Аудио
Идентификатор: 189 (0xBD)-128 (0x80)
Формат: AC-3
Формат/Информация: Audio Coding 3
Расширение режима: CM (complete main)
Режим смешивания: DVD-Video
Продолжительность: 21 м.
Вид битрейта: Постоянный
Битрейт: 256 Кбит/сек
Каналы: 2 канала
Расположение каналов: Front: L R
Частота: 48,0 КГц
Битовая глубина: 16 бит
Метод сжатия: С потерями
Размер потока: 39,4 Мбайт (4%)

Меню



Релиз представлен группой: [/field]
Поделиться:




реклама партнёра


Вернуться к началу
 Профиль Отправить личное сообщение  
 
   Похожие торренты   Автор   Торрент   Размер 
В этой теме нет новых непрочитанных сообщений. Сборник - Русский Рок Золотой [2014, Rock, Classic Rock, Soft Rock, Hard Rock, MP3]

Nickolas3435

457 | 26

935.39 МБ

В этой теме нет новых непрочитанных сообщений. Сборник - The Original Rock Meets Classic [2 CD] [2014, Rock, Hard Rock, FLAC]

Nickolas3435

185 | 11

1.05 ГБ

В этой теме нет новых непрочитанных сообщений. Kid Rock - First Kiss [Deluxe Edition] (Rock, Country, Southern Rock. 2015) MP3 320 kbps

Aleksandr.ru

26 | 4

114.38 МБ

В этой теме нет новых непрочитанных сообщений. Mark Knopfler - Tracker (Rock, Blues Rock, Folk Rock. 2015) MP3

Aleksandr.ru

152 | 5

139.55 МБ

В этой теме нет новых непрочитанных сообщений. Чичерина (Юлия Чичерина) - Дискография [2000 - 2012, Rock , Alternative Rock , Pop Rock, MP3]

salma3

1 | 2

3.05 ГБ

В этой теме нет новых непрочитанных сообщений. Chris Norman - Crossover (2015. Pop-Rock, Soft-Rock ) MP3 320 kbps

Aleksandr.ru

431 | 13

115.75 МБ

В этой теме нет новых непрочитанных сообщений. Сборник - Rock Collection 1997 [Rock, Metal, 2016] FLAC

salma3

20 | 4

12.43 ГБ


Начать новую тему Ответить на тему  [ 1 сообщение ] 




Для Мосгорсуда, Роскомнадзора и рекламодателей:: mosgorsud-torrent[собачка]yandex.ru