Торрент файл
скачать торрент магнет ссылка Добавлен: 08 янв 2012, 04:00
Размер: 2.35 ГБ
Сидеров: 5
Личеров: 8
Автор

СообщениеДобавлено: 08 янв 2012, 04:00 

Не в сети
Супермодератор
Аватара пользователя
Дата регистрации:
22 май 2010, 11:03
Возраст: 37
Спасибо: 7939 / 13
Сообщения: 49828
Fancy - Videos & Lives


Формат: DVD5, DVD Video, MPEG2, MP2
Песня: Videos & Lives
Жанр: Eurodisco
Продолжительность: 00:48:16
Год выпуска: 2008

Видео: 720х576 (PAL 4:3), 25 fps, MPEG-2, ~7331 kbps avg, 0.707 bit/pixel
Аудио: 48 kHz, MP-2 , 2 ch, 224.00 kbps avg

Доп. информация: Fancy (Фэнси) (Манфред Алоис Зегит, нем. Manfred Alois Segieth, род. 7 июля 1946) — немецкий певец, исполняющий песни в стилях итало диско и евродиско. Пик его популярности пришёлся на середину и конец 1980-х годов.
Fancy дал уже болeе чем 1000 концертов в США, Канаде, Азии и Европе.
Fancy был 9 раз в Тор-20 Нits в Германии, Азии, и Америке. Так было, например, с Bolero три Месяца № 1 в Испании и 3 раза Тор-10 в Америке (US Billboard Charts).
С того времени, как два его Альбома «Best Of» и «Hitparty» попали в число первых, и Fancy’s «Megamix» стал Тор-Нit, исполнитель приобрел статус супер-звезды.
Fancy-Hits с 80-х годов уже давно стали незабываемыми и популярными во всем мире.


Треклист:
1.Slice Me Nice (original video)
2.Get Lost Tonight (original video)
3.Latin Fire (hitparade)
4.Lady Of Ice (original video)
5.Lady Of Ice (hitparade)
6.Lady Of Ice (3sat)
7.China Blue (original video)
8.Flames Of Love (hitparade)
9.Fools Cry (hitparade)
10.No Tears (original video)
11.Angel Eyes (original video)
12.Mega-mix '94
13.Flames Of Love (1999)
14.Mega-mix '98 (original video)
15.We Can Move A Mountain (live on ZDF)


Общее
Формат: MPEG-PS
Общий поток: 7708 Кбит/сек

Видео
Идентификатор: 224 (0xE0)
Формат: MPEG Video
Версия формата: Version 2
Профиль формата: Main@Main
Параметр BVOP формата: Да
Параметр матрицы формата: По умолчанию
Параметры GOP формата: M=3, N=15
Вид битрейта: Переменный
Битрейт: 7331 Кбит/сек
Номинальный битрейт: 9610 Кбит/сек
Ширина: 720 пикс.
Высота: 576 пикс.
Соотношение сторон: 4:3
Частота кадров: 25,000 кадр/сек
Стандарт вещания: PAL
Цветовое пространство: YUV
Подвыборка цветности: 4:2:0
Битовая глубина: 8 бит
Тип развёртки: Чересстрочная
Порядок развёртки: Нижнее поле первое
Метод сжатия: С потерями
Бит/(Пиксели*Кадры): 0.707
Размер потока: 231 Мбайт (95%)

Аудио
Идентификатор: 192 (0xC0)
Формат: MPEG Audio
Версия формата: Version 1
Профиль формата: Layer 2
Вид битрейта: Постоянный
Битрейт: 224 Кбит/сек
Канал(ы): 2 канала(ов)
Частота: 48,0 КГц
Метод сжатия: С потерями
Размер потока: 7,05 Мбайт (3%)









Поделиться:



Вернуться к началу
 Профиль Отправить личное сообщение  
 
   Похожие торренты   Автор   Торрент   Размер 
В этой теме нет новых непрочитанных сообщений. Cody Lane - Anal Videos (Pack / 34 videos) [Anal Sex, DP, Group Sex, Pornstar, Brunette, DVDRip]

salma3

5 | 2

20.42 ГБ

В этой теме нет новых непрочитанных сообщений. Первое анальное задание / First Anal Quest [25 Videos] (2008-2014) WEBRip 720p

zorgi

46 | 40

17.07 ГБ

В этой теме нет новых непрочитанных сообщений. [Spankingonline.com / Xerotics.com] Sally, Honey & Auntie Katie - Рабочий опыт / Work Experience [8 Videos] [2016 г., Punishment, Spanking, Perversions, Hardcore, Pain, BDSM, Fetish, Submission, British, Granny, Young, Natural Tits, 720p]

BaLaMuT

4 | 2

2.45 ГБ

В этой теме нет новых непрочитанных сообщений. Видео с мачехой 2 / Stepmom Videos 2 (2015) DVDRip

zorgi

45 | 5

2.05 ГБ

В этой теме нет новых непрочитанных сообщений. Phoenix Marie [9 Videos] (2009-2014) WEB-DLRip

zorgi

0 | 0

4.76 ГБ

В этой теме нет новых непрочитанных сообщений. Горячие и сердитые / Hot And Mean [7 Videos] (2021) WEB-DLRip

zorgi

4 | 1

4.08 ГБ

В этой теме нет новых непрочитанных сообщений. Мамино порно / Mature Porn / 5 Videos (2016-2020) WEB-DLRip

zorgi

35 | 7

2.91 ГБ


Начать новую тему Ответить на тему  [ 1 сообщение ] 




Для Мосгорсуда, Роскомнадзора и рекламодателей:: rstracker[собака]yandex.ru
cron