Торрент файл
скачать торрент магнет ссылка Добавлен: 08 янв 2012, 04:00
Размер: 2.35 ГБ
Сидеров: 5
Личеров: 7
Автор

СообщениеДобавлено: 08 янв 2012, 04:00 

Не в сети
Супермодератор
Аватара пользователя
Дата регистрации:
22 май 2010, 11:03
Возраст: 31
Спасибо: 7509 / 13
Сообщения: 49940
Fancy - Videos & Lives


Формат: DVD5, DVD Video, MPEG2, MP2
Песня: Videos & Lives
Жанр: Eurodisco
Продолжительность: 00:48:16
Год выпуска: 2008

Видео: 720х576 (PAL 4:3), 25 fps, MPEG-2, ~7331 kbps avg, 0.707 bit/pixel
Аудио: 48 kHz, MP-2 , 2 ch, 224.00 kbps avg

Доп. информация: Fancy (Фэнси) (Манфред Алоис Зегит, нем. Manfred Alois Segieth, род. 7 июля 1946) — немецкий певец, исполняющий песни в стилях итало диско и евродиско. Пик его популярности пришёлся на середину и конец 1980-х годов.
Fancy дал уже болeе чем 1000 концертов в США, Канаде, Азии и Европе.
Fancy был 9 раз в Тор-20 Нits в Германии, Азии, и Америке. Так было, например, с Bolero три Месяца № 1 в Испании и 3 раза Тор-10 в Америке (US Billboard Charts).
С того времени, как два его Альбома «Best Of» и «Hitparty» попали в число первых, и Fancy’s «Megamix» стал Тор-Нit, исполнитель приобрел статус супер-звезды.
Fancy-Hits с 80-х годов уже давно стали незабываемыми и популярными во всем мире.


Треклист:
1.Slice Me Nice (original video)
2.Get Lost Tonight (original video)
3.Latin Fire (hitparade)
4.Lady Of Ice (original video)
5.Lady Of Ice (hitparade)
6.Lady Of Ice (3sat)
7.China Blue (original video)
8.Flames Of Love (hitparade)
9.Fools Cry (hitparade)
10.No Tears (original video)
11.Angel Eyes (original video)
12.Mega-mix '94
13.Flames Of Love (1999)
14.Mega-mix '98 (original video)
15.We Can Move A Mountain (live on ZDF)


Общее
Формат: MPEG-PS
Общий поток: 7708 Кбит/сек

Видео
Идентификатор: 224 (0xE0)
Формат: MPEG Video
Версия формата: Version 2
Профиль формата: Main@Main
Параметр BVOP формата: Да
Параметр матрицы формата: По умолчанию
Параметры GOP формата: M=3, N=15
Вид битрейта: Переменный
Битрейт: 7331 Кбит/сек
Номинальный битрейт: 9610 Кбит/сек
Ширина: 720 пикс.
Высота: 576 пикс.
Соотношение сторон: 4:3
Частота кадров: 25,000 кадр/сек
Стандарт вещания: PAL
Цветовое пространство: YUV
Подвыборка цветности: 4:2:0
Битовая глубина: 8 бит
Тип развёртки: Чересстрочная
Порядок развёртки: Нижнее поле первое
Метод сжатия: С потерями
Бит/(Пиксели*Кадры): 0.707
Размер потока: 231 Мбайт (95%)

Аудио
Идентификатор: 192 (0xC0)
Формат: MPEG Audio
Версия формата: Version 1
Профиль формата: Layer 2
Вид битрейта: Постоянный
Битрейт: 224 Кбит/сек
Канал(ы): 2 канала(ов)
Частота: 48,0 КГц
Метод сжатия: С потерями
Размер потока: 7,05 Мбайт (3%)









Поделиться:




реклама партнёра


Вернуться к началу
 Профиль Отправить личное сообщение  
 
   Похожие торренты   Автор   Торрент   Размер 
В этой теме нет новых непрочитанных сообщений. Отдельная жизнь / Separate Lives [Триллер, 1995] DVD5, Avo+Mvo

salma3

2 | 3

4.03 ГБ

В этой теме нет новых непрочитанных сообщений. VA - Italo Disco Collection [2014, Italodisco, Eurodisco, MP3]

Nickolas3435

162 | 11

709.88 МБ

В этой теме нет новых непрочитанных сообщений. John Lees - A Major Fancy [1977, Crossover Prog Rock, MP3]

PriZraK

0 | 2

120.81 МБ

В этой теме нет новых непрочитанных сообщений. Частные уроки / Fancy Walk (Ко Гён А) [2013, драма, мелодрама, эротика, HDRip 720p] mvo

Nickolas3435

230 | 15

2.55 ГБ

В этой теме нет новых непрочитанных сообщений. Fancy Fucks / Необычные Трахания (Bluebird Films) [2016 г., All Sex, Oral, Gonzo, MILFs, Busty, HDRip, 1080p]

max77777

4 | 2

6.65 ГБ

В этой теме нет новых непрочитанных сообщений. Deuce - Nine Lives [2012, Rap-Rock,Rapcore, MP3]

PriZraK

0 | 1

104.06 МБ

В этой теме нет новых непрочитанных сообщений. Девять жизней / Nine Lives (2016) BDRip-AVC от HELLYWOOD | iTunes

marya111

819 | 41

2.14 ГБ


Начать новую тему Ответить на тему  [ 1 сообщение ] 




Для Мосгорсуда, Роскомнадзора и рекламодателей:: mosgorsud-torrent[собачка]yandex.ru