Торрент файл
скачать торрент магнет ссылка Добавлен: 08 янв 2012, 03:59
Размер: 4.36 ГБ
Сидеров: 2
Личеров: 5
Автор

СообщениеДобавлено: 08 янв 2012, 03:59 

Не в сети
Супермодератор
Аватара пользователя
Дата регистрации:
22 май 2010, 11:03
Возраст: 31
Спасибо: 7509 / 13
Сообщения: 49940
Kiss - Konfidential & X-Treme Close Up

Формат: DVD5 (сжатый), DVD Video, MPEG2, AC3
Песня: Konfidential & X-Treme Close Up
Жанр: Glam Rock
Продолжительность: 02:56:55
Год выпуска: 2001
Видео: MPEG 2 VIDEO, 720*576( PAL 4:3), 25.00 fps, ~3434 kbps avg, 0,331 bit/pixel
Аудио: 48,0 khz, AC-3, 2 ch, 192 kbps avg
Доп. информация: Концерт в Детройте, США. 27 ноября 1992 года. Интервью с музыкантами группы, видеоклипы, записи концертных выступлений разных лет.

Удалил:предостережение, заставку, аудио PCM, субтитры. Видео сжато на 21%


Konfidential

01. Creatures Of The Night
02. Deuce
03. I Just Wanna
04. Unholy
05. Heaven’s On Fire
06. 100,000 Years (Detroit, 1976)
07. Nothin’ To Lose (San Francisco, 1975)
08. Hotter Than Hell (Detroit, 1976)
09. Let Me Go, Rock And Roll (Japan, 1977)
10. Domino
11. Lick It Up
12. Forever
13. Take It Off
14. I Love It Loud
15. God Gave Rock And Roll To You II
16. Star Spangled Banner

X-Treme Close Up

01. PolyGram KISS commercial (1992)
02. Unholy (Video, 1992)
03. Sure Know Something (Video excerpt, 1979)
04. Watchin’ You (Live excerpt, 1975)
05. Cadillac High School visit newsreel (1976)
06. Black Diamond (Live Excerpt, 1976)
07. Australian 60 Minutes (Segment, 1980)
08. Cold Gin (Live excerpt, 1975)
09. Deuce (Live excerpt, 1976)
10. 100,000 Years (Live excerpt, 1976)
11. Let Me Go, Rock And Roll (Live excerpt, 1976)
12. Beth (Live excerpt, 1977)
13. God of Thunder (Live excerpt, 1977)
14. Black Diamond (Live excerpt, 1977)
15. Love ‘Em And Leave ‘Em (Video, 1976)
16. Hard Luck Woman (Video, 1976)
17. Kiss dolls commercial (197
18. Kiss comics newsreel (1977)
19. I Stole Your Love (Live excerpt, 197
20. Rock And Roll All Nite (movie opening sequence, 197
21. Phantom sequence, 1978
22. I Was Made For Lovin’ You (Video excerpt, 1979)
23. A World Without Heroes (Video excerpt, 1981)
24. Creatures Of The Night (Excerpt, 1982)
25. Calling Dr. Love (Live excerpt, 1983)
26. War Machine (Live excerpt, 1983)
27. Lick It Up (Video excerpt, 1983)
28. Let’s Put The X In Sex (Video excerpt, 1988)
29. Rise To It (Video, 1989)
30. Hide Your Heart (”Censored Edit” Video, 1989)
31. Forever (Video, 1989)
32. I Just Wanna (Video excerpt, 1992)
33. God Gave Rock And Roll To You II (Over closing credits)
Title: Kiss - Konfidential + Xtreme Close Up
Size: 4.36 Gb ( 4 571 132,00 KBytes ) - DVD-5
Enabled regions: 1, 2, 3, 4, 5, 6, 7, 8

VTS_01 :
Play Length: 00:00:00+00:00:00+00:00:00
Video: PAL 4:3 (720x576) VBR
Audio:
English (Dolby AC3, 2 ch)

VTS_02 :
Play Length: 01:27:35+01:29:20
Video: PAL 4:3 (720x576) VBR
Audio:
English,
English, AC3, 2/0 (L,R) ch, 192 kbps, Delay 0 mSec

VTS_03 :
Play Length: 00:00:00+00:00:06
Video: PAL 4:3 (720x576) VBR
Audio:
English (Dolby AC3, 2 ch)

* Menus Information *

VIDEO_TS Menu
Video:
NTSC 4:3 (720x480) VBR
Auto Pan&Scan, Auto Letterboxed
English Language Unit :
Title Menu

VTS_01 Menu
Video:
NTSC 4:3 (720x480) VBR
Auto Pan&Scan, Auto Letterboxed
English Language Unit :
Root Menu

VTS_02 Menu
Video:
PAL 4:3 (720x576) VBR
Audio:
Not specified (Dolby AC3, 2 ch)
English Language Unit :
Root Menu

VTS_03 Menu
Video:
NTSC 4:3 (720x480) VBR
Auto Pan&Scan, Auto Letterboxed
English Language Unit :
Root Menu
Общее
Полное имя: D:\Torrents\Download\Kiss - Konfidential + Xtreme Close Up\VIDEO_TS\VTS_02_1.VOB
Формат: MPEG-PS
Размер файла: 1024 Мбайт
Продолжительность: 38 м.
Общий поток: 3700 Кбит/сек

Видео
Идентификатор: 224 (0xE0)
Формат: MPEG Video
Версия формата: Version 2
Профиль формата: Main@Main
Параметр BVOP формата: Да
Параметр матрицы формата: По умолчанию
Продолжительность: 38 м.
Вид битрейта: Переменный
Битрейт: 3434 Кбит/сек
Номинальный битрейт: 7800 Кбит/сек
Ширина: 720 пикс.
Высота: 576 пикс.
Соотношение сторон: 4:3
Частота кадров: 25,000 кадр/сек
Стандарт вещания: PAL
Цветовое пространство: YUV
Подвыборка цветности: 4:2:0
Битовая глубина: 8 бит
Тип развёртки: Чересстрочная
Порядок развёртки: Верхнее поле первое
Метод сжатия: С потерями
Бит/(Пиксели*Кадры): 0.331
Размер потока: 950 Мбайт (93%)

Аудио
Идентификатор: 129 (0x81)
Формат: AC-3
Формат/Информация: Audio Coding 3
Расширение режима: CM (complete main)
Продолжительность: 38 м.
Вид битрейта: Постоянный
Битрейт: 192 Кбит/сек
Каналы: 2 канала
Расположение каналов: Front: L R
Частота: 48,0 КГц
Битовая глубина: 16 бит
Метод сжатия: С потерями
Размер потока: 53,1 Мбайт (5%)

Меню









[b]Поделиться:




реклама партнёра


Вернуться к началу
 Профиль Отправить личное сообщение  
 
   Похожие торренты   Автор   Торрент   Размер 
В этой теме нет новых непрочитанных сообщений. Kiss - Monster (Limited Tour Edition) [2013, Hard Rock,Glam Rock, MP3]

PriZraK

4 | 3

110.48 МБ

В этой теме нет новых непрочитанных сообщений. Kiss - 40 Years - Decades Of Decibels (2CD) [2014, Hard Rock,Glam Metal, MP3]

PriZraK

5 | 3

346.92 МБ

В этой теме нет новых непрочитанных сообщений. VA - Стальные нервы (Glam Metal and Hair Rock Classics) [2013, Glam Metal, Hair Rock, Hard Rock, Rock, MP3]

PriZraK

0 | 1

589.04 МБ

В этой теме нет новых непрочитанных сообщений. Скуби-Ду и KISS: Тайна рок-н-ролла / Scooby-Doo! And Kiss: Rock and Roll Mystery (Спайк Брандт, Тони Червоне) [Мультфильм, семейный, 2015] DVDRip, dub [Чистый звук]

Dracon

7 | 0

1.37 ГБ

В этой теме нет новых непрочитанных сообщений. VA - Glam Rock Anthology (3CD) [2012, Glam Rock, MP3]

PriZraK

0 | 1

363.81 МБ

В этой теме нет новых непрочитанных сообщений. Alice Cooper - Collection (ard Rock, shock rock, garage rock, glam rock. 1969-2012) FLAC

Aleksandr.ru

16 | 25

27.19 ГБ

В этой теме нет новых непрочитанных сообщений. Kid Rock - First Kiss [Deluxe Edition] (Rock, Country, Southern Rock. 2015) MP3 320 kbps

Aleksandr.ru

26 | 4

114.38 МБ


Начать новую тему Ответить на тему  [ 1 сообщение ] 




Для Мосгорсуда, Роскомнадзора и рекламодателей:: mosgorsud-torrent[собачка]yandex.ru