Торрент файл
скачать торрент магнет ссылка Добавлен: 08 янв 2012, 03:59
Размер: 4.36 ГБ
Сидеров: 3
Личеров: 5
Автор

СообщениеДобавлено: 08 янв 2012, 03:59 

Не в сети
Супермодератор
Аватара пользователя
Дата регистрации:
22 май 2010, 11:03
Возраст: 31
Спасибо: 7508 / 13
Сообщения: 49940
W.A.S.P. - Videos... In The Raw


Формат: DVD5, DVD Video, MPEG2, AC3
Песня: Videos... In The Raw
Жанр: Heavy Metal
Продолжительность: 01:21:42
Год выпуска: 1993
Видео: MPEG 2 VIDEO, 720*576( PAL 4:3), 25.00 fps, ~7287 kbps avg, 0,703 bit/pixel
Аудио: 48,0 khz, AC-3, 2 ch, 192 kbps avg
Доп. информация: Видеоклипы 1984-1992 годов, фрагменты интервью с участниками группы. DVD выполнен с VHSRip
    Треклист

1. Animal (F*** Like A Beast)
2. LOVE Machine
3. I Wanna Be Somebody
4. On Your Knees
5. Blind In Texas
6. Wild Child
7. I Don't Need No Doctor
8. The Real Me
9. Forever Free
10. The Idol
11. Hold On To My Heart
12. Hellion
13. Scream Until You Like It
14. Manimal
Title: W.A.S.P. - Videos In The Raw
Size: 4.36 Gb ( 4 571 134,00 KBytes ) - DVD-5
Enabled regions: 1, 2, 3, 4, 5, 6, 7, 8

VTS_01 :
Play Length: 01:21:42
Video: PAL 4:3 (720x576) VBR
Audio:
English, AC3, 2/0 (L,R) ch, 192 kbps, Delay 0 mSec

* Menus Information *

VIDEO_TS Menu
Video:
NTSC 4:3 (720x480) VBR
Auto Pan&Scan, Auto Letterboxed
Language Unit :

VTS_01 Menu
Video:
PAL 4:3 (720x576) VBR
English Language Unit :
Root Menu
Общее
Полное имя: D:\Torrents\Download\W.A.S.P. - Videos In The Raw\VIDEO_TS\VTS_01_1.VOB
Формат: MPEG-PS
Размер файла: 1024 Мбайт
Продолжительность: 18 м.
Общий поток: 7631 Кбит/сек

Видео
Идентификатор: 224 (0xE0)
Формат: MPEG Video
Версия формата: Version 2
Профиль формата: Main@Main
Параметр BVOP формата: Да
Параметр матрицы формата: По умолчанию
Параметры GOP формата: M=3, N=15
Продолжительность: 18 м.
Вид битрейта: Переменный
Битрейт: 7287 Кбит/сек
Номинальный битрейт: 9097 Кбит/сек
Ширина: 720 пикс.
Высота: 576 пикс.
Соотношение сторон: 4:3
Частота кадров: 25,000 кадр/сек
Стандарт вещания: PAL
Цветовое пространство: YUV
Подвыборка цветности: 4:2:0
Битовая глубина: 8 бит
Тип развёртки: Чересстрочная
Порядок развёртки: Нижнее поле первое
Метод сжатия: С потерями
Бит/(Пиксели*Кадры): 0.703
Размер потока: 978 Мбайт (95%)

Аудио
Идентификатор: 128 (0x80)
Формат: AC-3
Формат/Информация: Audio Coding 3
Расширение режима: CM (complete main)
Продолжительность: 18 м.
Вид битрейта: Постоянный
Битрейт: 192 Кбит/сек
Каналы: 2 канала
Расположение каналов: Front: L R
Частота: 48,0 КГц
Битовая глубина: 16 бит
Метод сжатия: С потерями
Задержка видео: -80 мс.
Размер потока: 25,8 Мбайт (3%)

Меню






[b]Поделиться:




реклама партнёра


Вернуться к началу
 Профиль Отправить личное сообщение  
 
   Похожие торренты   Автор   Торрент   Размер 
В этой теме нет новых непрочитанных сообщений. Zar - From Welcome...To Goodbye (Japanese Edition) [1993, Heavy Metal, Heavy Rock, MP3]

PriZraK

0 | 1

143.75 МБ

В этой теме нет новых непрочитанных сообщений. Паранойя - Месть Зла [1993, Thrash Metal,Heavy Metal, MP3]

PriZraK

0 | 3

84.7 МБ

В этой теме нет новых непрочитанных сообщений. Phantom (USA) - Cyberchrist [1993, Heavy Metal, Power Metal, MP3]

PriZraK

0 | 1

103.37 МБ

В этой теме нет новых непрочитанных сообщений. Manowar - The Triple Album Collection [3CD Boxed Set] [2012, Heavy Metal , Power Metal , Symphonic Metal , Classic Heavy Metal , True Heavy Metal, MP3]

PriZraK

11 | 3

437.26 МБ

В этой теме нет новых непрочитанных сообщений. Pagan - The Weight [1993, Melodic Heavy Metal, Hard Rock, MP3]

PriZraK

0 | 1

87.74 МБ

В этой теме нет новых непрочитанных сообщений. VA - Heavy Metal: Louder Than Life [2015, Hard Rock, Melodic Heavy Metal, Heavy Metal, MP3]

Nickolas3435

0 | 272

2.43 ГБ

В этой теме нет новых непрочитанных сообщений. VA - ТяЖесть [2011, Heavy Metal, Thrash Metal, Speed Metal, Death Metal, Nu Metal, Metalcore, Groove Metal, Symphonic Metal, Power Metal, Glam Metal, MP3]

PriZraK

2 | 2

2.05 ГБ


Начать новую тему Ответить на тему  [ 1 сообщение ] 




Для Мосгорсуда, Роскомнадзора и рекламодателей:: mosgorsud-torrent[собачка]yandex.ru