Торрент файл
скачать торрент магнет ссылка Добавлен: 08 янв 2012, 03:58
Размер: 2.32 ГБ
Сидеров: 0
Личеров: 6
Автор

СообщениеДобавлено: 08 янв 2012, 03:58 

Не в сети
Супермодератор
Аватара пользователя
Дата регистрации:
22 май 2010, 11:03
Возраст: 32
Спасибо: 7696 / 13
Сообщения: 49871
Fancy - Best Of...Die Hits Auf Deutsch


Формат: DVD5, DVD Video, MPEG2, AC3
Песня: Best Of...Die Hits Auf Deutsch
Жанр: Eurodisco
Продолжительность: 00:53:11
Год выпуска: 2003

Видео: 720х576 (PAL 4:3), 25 fps, MPEG-2, ~39,4 Mbps avg, 3.799 bit/pixel
Аудио: 48 kHz, MP-2 , 2 ch, 224.00 kbps avg

Доп. информация: Best Of...Die Hits Auf Deutsch был выпущен в 2003 году в целом - интересный и оригинальный диск. Вряд ли он приобретет широкую известность за пределами Германии, ибо был написан и рассчитан именно для гастрольного тура Fancy по Германии. Но, думается, истинные поклонники творчества исполнителя им несомненно заинтересуются. Выступление Fancy проходило в Мюнхене 2 сентября 2003 года. К сожалению, у многих посмотревших этот dvd сложилось подозрение, что Fancy поёт на этом концерте под фанеру.
P.S. Все песни исполнены на немецком языке.

Треклист:
1.Feuer & Eis (Slice Me Nice)
2.Hör den Bolero (Bolero)
3.Stimme der Nacht (Voice In The Dark)
4.Flammen der Liebe (Flames Of Love)
5.Es sah ein Knab' ein Röslein steh'n (Die For You)
6.Er weint (Fools Cry)
7.Doch ich habe dich geliebt (Always On My Mind)
8.Gefühle aus Eis (Lady Of Ice)
9.Angel Blue (Verlor'n im Paradies) (Running Man)
10.Stern der Einsamkeit (When Guardian Angels Cry)
11.Go West (West ist überall) (Go West)
12.Wo geht's zum Paradies? (Long Way To Paradise)
13.Na Na Hey Hey Kiss Him Goodbye
14.Auf der Reise (Save The Moment)


Общее
Полное имя: C:\Tfile\fancy_deutsch_[tfile.ru]\VIDEO_TS\VTS_01_2.VOB
Формат: MPEG-PS
Общий поток: 40,4 Мбит/сек

Видео
Идентификатор: 224 (0xE0)
Формат: MPEG Video
Версия формата: Version 2
Профиль формата: Main@Main
Параметр BVOP формата: Да
Параметр матрицы формата: По умолчанию
Параметры GOP формата: M=3, N=15
Вид битрейта: Переменный
Битрейт: 39,4 Мбит/сек
Номинальный битрейт: 9800 Кбит/сек
Ширина: 720 пикс.
Высота: 576 пикс.
Соотношение сторон: 4:3
Частота кадров: 25,000 кадр/сек
Стандарт вещания: PAL
Цветовое пространство: YUV
Подвыборка цветности: 4:2:0
Битовая глубина: 8 бит
Тип развёртки: Чересстрочная
Порядок развёртки: Верхнее поле первое
Метод сжатия: С потерями
Бит/(Пиксели*Кадры): 3.799
Размер потока: 998 Мбайт (97%)

Аудио
Идентификатор: 128 (0x80)
Формат: AC-3
Формат/Информация: Audio Coding 3
Расширение режима: CM (complete main)
Вид битрейта: Постоянный
Битрейт: 224 Кбит/сек
Канал(ы): 2 канала(ов)
Расположение каналов: Front: L R
Частота: 48,0 КГц
Битовая глубина: 16 бит
Метод сжатия: С потерями
Задержка видео: -200 мс.
Размер потока: 5,67 Мбайт (1%)











Поделиться:




реклама партнёра


Вернуться к началу
 Профиль Отправить личное сообщение  
 
   Похожие торренты   Автор   Торрент   Размер 
В этой теме нет новых непрочитанных сообщений. Sandra - The Video Hits Collection [Eurodisco, synth-pop, pop, dance, 2015] WEBRip

salma3

90 | 9

1.06 ГБ

В этой теме нет новых непрочитанных сообщений. [BackstageBangers.com / Sindrive.com] Black Sophie, Kamikatzerl - Wanna Sprechen Deutsch? Nein! Just Wanna Ficken Deutsch!! So Here Is Your Deutschporn Portion For Today (11.10.16) [2016 г., Party Sex, High Class, Blowjobs, Lesbian Cum Play

friizze

3 | 3

1.32 ГБ

В этой теме нет новых непрочитанных сообщений. [GirlsOutWest.com] Jada (Fancy Free) [2017-9-18, Masturbation, Anal Fingering, 1080p]

salma3

10 | 3

713.5 МБ

В этой теме нет новых непрочитанных сообщений. Fancy Fucks / Необычные Трахания (Bluebird Films) [2016 г., All Sex, Oral, Gonzo, MILFs, Busty, HDRip, 1080p]

max77777

4 | 2

6.65 ГБ

В этой теме нет новых непрочитанных сообщений. За гранью времен / Beyond the Limits [ужасы, триллер, 2003] DVD5, Mvo

salma3

19 | 6

3.73 ГБ

В этой теме нет новых непрочитанных сообщений. Бурый кролик / The Brown Bunny [Драма, 2003] DVD5, Mvo

salma3

2 | 3

4.36 ГБ

В этой теме нет новых непрочитанных сообщений. 44 минуты: Бойня в северном Голливуде / 44 Minutes: The North Hollywood Shoot-Out [боевик, драма, криминал, 2003] DVD5, Mvo

salma3

35 | 11

3.88 ГБ


Начать новую тему Ответить на тему  [ 1 сообщение ] 




Для Мосгорсуда, Роскомнадзора и рекламодателей:: mosgorsud-torrent[собачка]yandex.ru