Торрент файл
скачать торрент магнет ссылка Добавлен: 08 янв 2012, 03:57
Размер: 4.31 ГБ
Сидеров: 19
Личеров: 9
Автор

СообщениеДобавлено: 08 янв 2012, 03:57 

Не в сети
Супермодератор
Аватара пользователя
Дата регистрации:
22 май 2010, 11:03
Возраст: 31
Спасибо: 7524 / 13
Сообщения: 49940
VA - Дискотека 80-х. Песни моей мамы Vol.3


Формат: DVD5, DVD Video, MPEG2, AC3
Песня: Дискотека 80-х. Песни моей мамы Vol.3
Жанр: Disco, Pop
Продолжительность: 02:00:56
Год выпуска: 1979-1994

Видео: 720х576 (PAL 4:3), 25 fps, MPEG-2, ~4175 kbps avg, 0.403 bit/pixel
Аудио: 48 kHz, AC-3 , 2 ch, 192.00 kbps avg

Доп. информация: В третьем альбоме продолжение подборки песен, которые помогут создать картину событий прошлого и вспомнить - как наши мамы проводили свой досуг на дискотеке 80-х в великой стране которой больше нет - в СССР.

001 Рок-ателье - Замыкая круг (1987)
002 Комбинация - American-Boy (1990)
003 Л. Вайкуле и В. Леонтьев - Вернисаж (1987)
004 Ю. Антонов - Не говорите мне прощай (1990)
005 Ласковый май - Лето (1988)
006 Альфа - Я московский озорной гуляка (mix из к-ф) (1982)
007 Маленький принц - Ты или нет (1990)
008 Nensi - Чистый лист (1993)
009 Т. Буланова - Только ты (1994)
010 И. Аллегрова - Фотография 9х12 (1992)
011 Н. Королёва - Жёлтые тюльпаны (1990)
012 Электроклуб - Ты замуж за него не выходи (1988)
013 Ю. Лоза - Опять (1986)
014 Здравствуй песня - Синий иней (1979)
015 М. Журавлева - Белая черемуха (1991)
016 А. Барыкин - Букет (1987)
017 Мираж - Я не шучу (1989)
018 И. Тальков - Солнце уходит на запад (1990)
019 Земляне - Взлетная Полоса (1983)
020 И. Саруханов - Заглянул в почтовый ящик (1986)
021 Наутилус Помпилиус - Гудбай Америка (1988)
022 С. Беликов - У беды глаза зелёные (к-ф Опасные друзья) (1980)
023 Сталкер и А. Державин - Я верю (1988)
024 Фея и С. Разина - Демон (1989)
025 Ж. Агузарова - Старый отель(1987)
026 Стелла - Вот и все (1991)
027 Форум - Улетели листья (1984)
028 Веселые ребята- Не волнуйтесь, тётя (1987)
029 Круиз - Крутится волчок (1981)
030 Н Караченцов и Е Шанина - Я тебя никогда не забуду (1983)

Общее
Полное имя: C:\Tfile\pesni_moey_mami_vol3_[tfile.ru]\VIDEO_TS\VTS_01_1.VOB
Формат: MPEG-PS
Общий поток: 4456 Кбит/сек

Видео
Идентификатор: 224 (0xE0)
Формат: MPEG Video
Версия формата: Version 2
Профиль формата: Main@Main
Параметр BVOP формата: Да
Параметр матрицы формата: По умолчанию
Параметры GOP формата: M=3, N=15
Вид битрейта: Переменный
Битрейт: 4175 Кбит/сек
Номинальный битрейт: 9008 Кбит/сек
Ширина: 720 пикс.
Высота: 576 пикс.
Соотношение сторон: 4:3
Частота кадров: 25,000 кадр/сек
Стандарт вещания: PAL
Цветовое пространство: YUV
Подвыборка цветности: 4:2:0
Битовая глубина: 8 бит
Тип развёртки: Прогрессивная
Метод сжатия: С потерями
Бит/(Пиксели*Кадры): 0.403
Размер потока: 959 Мбайт (94%)

Аудио
Идентификатор: 128 (0x80)
Формат: AC-3
Формат/Информация: Audio Coding 3
Расширение режима: CM (complete main)
Вид битрейта: Постоянный
Битрейт: 192 Кбит/сек
Канал(ы): 2 канала(ов)
Расположение каналов: Front: L R
Частота: 48,0 КГц
Битовая глубина: 16 бит
Метод сжатия: С потерями
Размер потока: 44,1 Мбайт (4%)












Поделиться:




реклама партнёра


Вернуться к началу
 Профиль Отправить личное сообщение  
 
   Похожие торренты   Автор   Торрент   Размер 
В этой теме нет новых непрочитанных сообщений. VA - Дискотека 80-90х по-новому 2 [2015, Disco, Pop, MP3]

Nickolas3435

647 | 15

1002.89 МБ

В этой теме нет новых непрочитанных сообщений. VA - Легендарная дискотека 90-х [2014, Disco, Dance, Pop, MP3]

Nickolas3435

986 | 21

720.01 МБ

В этой теме нет новых непрочитанных сообщений. VA - Турбо дискотека 50 на 50 [Pop, Disco, 2014] MP3, 256kbps

Dracon

49 | 4

671.01 МБ

В этой теме нет новых непрочитанных сообщений. Сборник - Зарубежная Дискотека 90-Х [2014, Pop, Disco, Eurodance, MP3]

Nickolas3435

447 | 10

835.4 МБ

В этой теме нет новых непрочитанных сообщений. Сборник - Назад В СССР - Дискотека 80-х, 90-х [2014, Pop, Disco, MP3]

Nickolas3435

926 | 35

699.56 МБ

В этой теме нет новых непрочитанных сообщений. VA - Дискотека в стиле Blue System [Pop, Disco, 2014] MP3, 128-320kbps

Dracon

66 | 6

709.04 МБ

В этой теме нет новых непрочитанных сообщений. VA - Осенняя дискотека популярных хитов [Pop, Disco, 2014] MP3, 256-319kbps

Dracon

57 | 4

687.46 МБ


Начать новую тему Ответить на тему  [ 1 сообщение ] 




Для Мосгорсуда, Роскомнадзора и рекламодателей:: mosgorsud-torrent[собачка]yandex.ru