Торрент файл
скачать торрент магнет ссылка Добавлен: 08 янв 2012, 03:56
Размер: 4.36 ГБ
Сидеров: 0
Личеров: 6
Автор

СообщениеДобавлено: 08 янв 2012, 03:56 

Не в сети
Супермодератор
Аватара пользователя
Дата регистрации:
22 май 2010, 11:03
Возраст: 32
Спасибо: 7690 / 13
Сообщения: 49871
Scorpions - Face The Heat - Live in Santiago Chile


Формат: DVD5, DVD Video, MPEG2, PCM
Песня: Face The Heat - Live in Santiago Chile
Жанр: Hard Rock
Продолжительность: 01:12:20
Год выпуска: 1994

Видео: 720х480 (NTSC 4:3), 29,970fps, MPEG-2, ~6269 kbps avg, 0.605 bit/pixel
Аудио: 48 kHz, PCM , 2 ch, 1536.00 kbps avg

Доп. информация: Альбом «Face the Heat» я бы назвал самым тяжёлым в дискографии Scorpions. Вышедший тремя годами раньше «Crazy World» ещё содержал в своём звучании традиции хэви и харда восьмидесятых, а вот «Face the Heat» этого напрочь лишён! Современный звук, чистый как слеза, сделал две вещи – утяжелил музыку, что стало причиной появления прямо-таки «брутальных» для группы композиций, а также добавил музыкальному материалу ещё больше духа коммерции.

00 Coming Home
01 Big City Nights
02 Tease Me Please Me
03 No Pain No Gain
04 When The Smoke Is Going Down
05 Holiday
06 Alien Nation
07 Under The Same Sun
08 He's A Woman She's A Man
09 Guitar Solo
10 Bad Boys Running Wild
11 Hit Between The Eyes
12 Blackout
13 Still Loving You
14 Wind Of Change
15 Rock You Like A Hurricane

Общее
Полное имя: C:\Tfile\scorpions_santiago_chile_[tfile.ru]\VIDEO_TS\VTS_01_1.VOB
Формат: MPEG-PS
Общий поток: 7964 Кбит/сек

Видео
Идентификатор: 224 (0xE0)
Формат: MPEG Video
Версия формата: Version 2
Профиль формата: Main@Main
Параметр BVOP формата: Да
Параметр матрицы формата: По умолчанию
Параметры GOP формата: M=3, N=15
Вид битрейта: Переменный
Битрейт: 6269 Кбит/сек
Номинальный битрейт: 8286 Кбит/сек
Ширина: 720 пикс.
Высота: 480 пикс.
Соотношение сторон: 4:3
Частота кадров: 29,970 кадр/сек
Стандарт вещания: NTSC
Цветовое пространство: YUV
Подвыборка цветности: 4:2:0
Битовая глубина: 8 бит
Тип развёртки: Прогрессивная
Порядок развёртки: Верхнее поле первое
Метод сжатия: С потерями
Бит/(Пиксели*Кадры): 0.605
Размер потока: 806 Мбайт (79%)

Аудио
Идентификатор: 160 (0xA0)
Формат: PCM
Параметр Endianness формата: Big
Параметр Sign формата: Signed
Режим смешивания: DVD-Video
Вид битрейта: Постоянный
Битрейт: 1536 Кбит/сек
Канал(ы): 2 канала(ов)
Расположение каналов: Front: L R
Частота: 48,0 КГц
Битовая глубина: 16 бит
Размер потока: 197 Мбайт (19%)












Поделиться:




реклама партнёра


Вернуться к началу
 Профиль Отправить личное сообщение  
 
   Похожие торренты   Автор   Торрент   Размер 
В этой теме нет новых непрочитанных сообщений. Cinderella - Stripped [Live] (Hard Rock, Glam Metal. 2014) MP3

Aleksandr.ru

98 | 12

182.42 МБ

В этой теме нет новых непрочитанных сообщений. Uriah Heep - Live at Koko [Deluxe Edition] (Hard Rock. 2015) MP3

Aleksandr.ru

32 | 4

214.56 МБ

В этой теме нет новых непрочитанных сообщений. Face Sitter 3 (Stuart Canterbury, Coast To Coast) [1994 г., All Sex, DVDRip]

salma3

7 | 2

1.18 ГБ

В этой теме нет новых непрочитанных сообщений. Сборник - Русский Рок Золотой [2014, Rock, Classic Rock, Soft Rock, Hard Rock, MP3]

Nickolas3435

457 | 26

935.39 МБ

В этой теме нет новых непрочитанных сообщений. [LegalPorno.com] Big butt slut Monica Santiago assfucked in the park SZ1480 / 06.06.2017 [MILF, Anal, A2M, Gangbang, 1080p]

salma3

5 | 1

4.21 ГБ

В этой теме нет новых непрочитанных сообщений. Жажда смерти 5: Лик смерти / Death Wish V: The Face of Death [Боевик, Криминал, Триллер, 1994] BDRip-AVC, mvo

salma3

17 | 4

2.85 ГБ

В этой теме нет новых непрочитанных сообщений. [21Naturals.com / 21Sextury.com] Katy Hill (Face To Face) [09.08.2017 г., Brown Haired, Natural Tits, Tatooed, Oral, Hardcore, Cumshot]

salma3

15 | 5

272.41 МБ


Начать новую тему Ответить на тему  [ 1 сообщение ] 




Для Мосгорсуда, Роскомнадзора и рекламодателей:: mosgorsud-torrent[собачка]yandex.ru