Торрент файл
скачать торрент магнет ссылка Добавлен: 08 янв 2012, 03:54
Размер: 4.3 ГБ
Сидеров: 0
Личеров: 13
Автор

СообщениеДобавлено: 08 янв 2012, 03:54 

Не в сети
Супермодератор
Аватара пользователя
Дата регистрации:
22 май 2010, 11:03
Возраст: 31
Спасибо: 7509 / 13
Сообщения: 49940
Scorpions - Luzhniki Stadium Moscow Russia


Формат: DVD5, DVD Video, MPEG2, AC3
Песня: Luzhniki Stadium Moscow Russia
Жанр: Hard Rock
Продолжительность: 01:57:47
Год выпуска: 19.07.1997

Видео: 720х576 (PAL 4:3), 25 fps, MPEG-2, ~4492 kbps avg, 0.433 bit/pixel
Аудио: 48 kHz, AC-3 , 6 ch (Front: L C R, Side: L R, LFE), 384.00 kbps avg

Доп. информация: SCORPIONS - это больше, чем просто классная рок-музыка. На сегодня это уже одна из наиболее успешных рок-групп в истории, и уж точно, самая успешная в Германии. Группа имеет миллионную аудиторию в разных уголках планеты, а песни Scorpions ни чуть не теряют своей актуальности, оставась такими же уместными и понятными. Музыка, которую писал и продолжает писать Клаус Майнэ - это слова на злобу дня, с одной стороны, и слова о вечном - с другой. А история легендарного коллектива начинается ещё в далёком 1965 году. Музыканты никогда не оставались в стороне, если речь шла об эпохальных событиях в истории, к примеру, выступали, когда происходил развал Берлинской стены.
Scorpions - Luzhniki Stadium Moscow Russia 07-19-1997


Состав:
Klaus Meine (vocals)
Rudolf Schenker (guitars, backing vocals)
Matthias Jabs (guitars, backing vocals)
James Kottak (drums, backing vocals)
Ralf Reickermann (bass, backing vocals)

01. Intro
02. Tease Me
03. Bad Boys Running Wild
04. Girl Wanna Be With You
05. Loving You Sunday Morning
06. Is there Anybody There
07. Coast To Coast
08. Holiday
09. You & I
10. The Zoo
11. We'll Burn The Sky
12. Wild Child
13. Big City Nights
14. Blackout
15. Dynamite (Intro)
16. Drum Solo
17. Dynamite (Outro)

Encore:
18. Still Loving You
19. Wind Of change
20. Rock You Like A Hurricane
21. Russian Theme
22. When The Smoke Is Going Down
23. Outro

Общее
Полное имя: C:\Tfile\scorpions_luzhniki_moscow_[tfile.ru]\VIDEO_TS\VTS_01_1.VOB
Формат: MPEG-PS
Общий поток: 4975 Кбит/сек

Видео
Идентификатор: 224 (0xE0)
Формат: MPEG Video
Версия формата: Version 2
Профиль формата: Main@Main
Параметр BVOP формата: Да
Параметр матрицы формата: По умолчанию
Параметры GOP формата: M=3, N=15
Вид битрейта: Переменный
Битрейт: 4492 Кбит/сек
Номинальный битрейт: 9448 Кбит/сек
Ширина: 720 пикс.
Высота: 576 пикс.
Соотношение сторон: 4:3
Частота кадров: 25,000 кадр/сек
Стандарт вещания: PAL
Цветовое пространство: YUV
Подвыборка цветности: 4:2:0
Битовая глубина: 8 бит
Тип развёртки: Прогрессивная
Порядок развёртки: Нижнее поле первое
Метод сжатия: С потерями
Бит/(Пиксели*Кадры): 0.433
Размер потока: 925 Мбайт (90%)
Библиотека кодирования: Created by Nero

Аудио
Идентификатор: 128 (0x80)
Формат: AC-3
Формат/Информация: Audio Coding 3
Расширение режима: CM (complete main)
Вид битрейта: Постоянный
Битрейт: 384 Кбит/сек
Канал(ы): 6 канала(ов)
Расположение каналов: Front: L C R, Side: L R, LFE
Частота: 48,0 КГц
Битовая глубина: 16 бит
Метод сжатия: С потерями
Задержка видео: -40 мс.
Размер потока: 79,0 Мбайт (8%)










Поделиться:




реклама партнёра


Вернуться к началу
 Профиль Отправить личное сообщение  
 
   Похожие торренты   Автор   Торрент   Размер 
В этой теме нет новых непрочитанных сообщений. Scorpions - MTV Unplugged: Live In Athens (2CD) [2013, Hard Rock, MP3]

PriZraK

33 | 3

262.02 МБ

В этой теме нет новых непрочитанных сообщений. Scorpions - MTV Unplugged: The Studio Edits [2014, Hard Rock, Acoustic, MP3]

PriZraK

18 | 5

96 МБ

В этой теме нет новых непрочитанных сообщений. The Jimi Hendrix Experience - Are You Experienced [1997, Psychedelic Rock, Hard Rock, Blues Rock, MP3]

PriZraK

1 | 1

143.57 МБ

В этой теме нет новых непрочитанных сообщений. Muse - Live At Rome Olympic Stadium [2013, Alternative, Progressive Rock, MP3]

PriZraK

15 | 2

150.77 МБ

В этой теме нет новых непрочитанных сообщений. Radio Moscow - Magical Dirt [2014, Psychedelic Stoner Rock, Blues Rock, Garage Rock, MP3]

PriZraK

1 | 1

98.34 МБ

В этой теме нет новых непрочитанных сообщений. Samson - Don't Get Mad - Get Even [1997, Hard Rock, MP3]

PriZraK

12 | 4

183.26 МБ

В этой теме нет новых непрочитанных сообщений. Halifax - It's Not Enough [1997, Melodic Hard Rock, MP3]

PriZraK

0 | 1

81.45 МБ


Начать новую тему Ответить на тему  [ 1 сообщение ] 




Для Мосгорсуда, Роскомнадзора и рекламодателей:: mosgorsud-torrent[собачка]yandex.ru