Торрент файл
скачать торрент магнет ссылка Добавлен: 08 янв 2012, 03:53
Размер: 4.35 ГБ
Сидеров: 44
Личеров: 18
Автор

СообщениеДобавлено: 08 янв 2012, 03:53 

Не в сети
Супермодератор
Аватара пользователя
Дата регистрации:
22 май 2010, 11:03
Возраст: 31
Спасибо: 7509 / 13
Сообщения: 49940
Юрий Антонов - Я не жалею ни о чем (юбилейный концерт)

Формат: DVD5(SATRip), DVD Video, MPEG2, AC3
Песня: Я не жалею ни о чем (юбилейный концерт)
Жанр: Pop
Продолжительность: 02:49:06
Год выпуска: 2010
Видео: 720х576 (PAL 4:3, 4:2:0), MPEG Video(Version 2), at 25.000 fps, 3304 Kbps,0.319 bits/pixel
Аудио: 48 kHz, AC-3, 2 ch (Front: L R), 256 Kbps
Доп. информация:
    01. Юрий Антонов - Тебе
    02. Юрий Антонов - Зеркало
    03. Юрий Антонов - Море
    04. Варвара - От печали до радости
    05. Юрий Антонов - У берёз и сосен
    06. Юрий Антонов - Золотая лестница
    07. Лев Лещенко - Снегири
    08. Юрий Антонов - Если любишь ты
    09. Вячеслав Малежик - А где-то
    10. Сергей Беликов - Радуга
    11. Юрий Антонов - На улице Каштановой
    12. Юрий Антонов - Бабье лето
    13. Александр Маршал - Проливные дожди
    14. Юрий Антонов - Родные места
    15. Игорь Саруханов - Я иду тебе навстречу
    16. Юрий Антонов - Белый теплоход
    17. Юрий Антонов - Я вспоминаю
    18. Юрий Антонов - От печали до радости
    19. Юрий Антонов - Ещё вчера
    20. Сергей Лазарев - Анастасия
    21. Юрий Антонов - Хмельная сирень
    22. Иосиф Кобзон - Маки
    23. Юрий Антонов - Долгожданный самолёт
    24. Группа "Аракс" - С чего бы
    25. Группа "Моральный кодекс" - Давай не будем спешить
    26. Леонид Агутин и Анжелика Варум - Двадцать лет спустя
    27. Сосо Павлиашвили - На высоком берегу
    28. Валерия - Несёт меня течение
    29. Юрий Антонов - Не говорите мне прощай
    30. Юрий Антонов - Страна чудес
    31. Юрий Антонов - Нет тебя прекрасней
    32. Юрий Антонов - Лунная дорожка
    33. Юрий Антонов - Поверь в мечту
    34. Юрий Антонов - Не забывай
    35. Юрий Антонов - Крыша дома твоего








    Общее
    Полное имя: F:\Tfile - rs Bandito music\1 Архивы\Юрий Антонов - Я не жалею ни о чем (DVD52011)\VIDEO_TS\VTS_01_1.VOB
    Формат: MPEG-PS
    Размер файла: 1000 Мбайт
    Продолжительность: 38 м.
    Общий поток: 3632 Кбит/сек

    Видео
    Идентификатор: 224 (0xE0)
    Формат: MPEG Video
    Версия формата: Version 2
    Профиль формата: Main@Main
    Параметр BVOP формата: Да
    Параметр матрицы формата: По умолчанию
    Параметры GOP формата: M=3, N=12
    Продолжительность: 38 м.
    Вид битрейта: Переменный
    Битрейт: 3304 Кбит/сек
    Максимальный битрейт: 4300 Кбит/сек
    Ширина: 720 пикс.
    Высота: 576 пикс.
    Соотношение сторон: 4:3
    Частота кадров: 25,000 кадр/сек
    Стандарт вещания: PAL
    Цветовое пространство: YUV
    Подвыборка цветности: 4:2:0
    Битовая глубина: 8 бит
    Тип развёртки: Чересстрочная
    Порядок развёртки: Нижнее поле первое
    Метод сжатия: С потерями
    Бит/(Пиксели*Кадры): 0.319
    Размер потока: 910 Мбайт (91%)

    Аудио
    Идентификатор: 189 (0xBD)-128 (0x80)
    Формат: AC-3
    Формат/Информация: Audio Coding 3
    Расширение режима: CM (complete main)
    Режим смешивания: DVD-Video
    Продолжительность: 38 м.
    Вид битрейта: Постоянный
    Битрейт: 256 Кбит/сек
    Каналы: 2 канала
    Расположение каналов: Front: L R
    Частота: 48,0 КГц
    Битовая глубина: 16 бит
    Метод сжатия: С потерями
    Задержка видео: -80 мс.
    Размер потока: 70,5 Мбайт (7%)

    Меню





Релиз представлен группой:
Поделиться:




реклама партнёра


Вернуться к началу
 Профиль Отправить личное сообщение  
 
   Похожие торренты   Автор   Торрент   Размер 
В этой теме нет новых непрочитанных сообщений. Юбилейный концерт Евгения Крылатова [03.01] (Россия) [Концерт, 2015] SATRip

Dracon

19 | 5

986.87 МБ

В этой теме нет новых непрочитанных сообщений. Юбилейный концерт Игоря Крутого из Государственного Кремлевского дворца [03.01] (Россия) [Концерт, 2015] SATRip

Dracon

96 | 5

1.92 ГБ

В этой теме нет новых непрочитанных сообщений. Юбилейный концерт Евгения Крылатова [03.01] (Россия) [Концерт, 2015] HDTV 1080i

Dracon

18 | 3

5.49 ГБ

В этой теме нет новых непрочитанных сообщений. Юбилейный концерт Надежды Кадышевой (Россия) [Концерт, 2015] HDTVRip

Dracon

6 | 3

1.37 ГБ

В этой теме нет новых непрочитанных сообщений. Михаил Жванецкий. Юбилейный концерт [Концерт, юмор, 2014] HDTVRip

Dracon

245 | 5

1.21 ГБ

В этой теме нет новых непрочитанных сообщений. Леонид Агутин. Юбилейный концерт [Концерт, поп, 2014] HDTVRip

Dracon

47 | 3

1.37 ГБ

В этой теме нет новых непрочитанных сообщений. Юбилейный концерт Игоря Крутого из Государственного Кремлевского дворца [03.01] (Россия) [Концерт, 2015] HDTV 1080i

Dracon

33 | 2

9.63 ГБ


Начать новую тему Ответить на тему  [ 1 сообщение ] 




Для Мосгорсуда, Роскомнадзора и рекламодателей:: mosgorsud-torrent[собачка]yandex.ru