Торрент файл
скачать торрент магнет ссылка Добавлен: 08 янв 2012, 03:53
Размер: 4.36 ГБ
Сидеров: 1
Личеров: 10
Автор

СообщениеДобавлено: 08 янв 2012, 03:53 

Не в сети
Супермодератор
Аватара пользователя
Дата регистрации:
22 май 2010, 11:03
Возраст: 31
Спасибо: 7509 / 13
Сообщения: 49940
Motley Crue - Lewd, Crued & Tattooed Live

Формат: DVD5, DVD Video, MPEG2, AC3
Песня: Lewd, Crued & Tattooed Live
Жанр: Glam Rock
Продолжительность: 01:36:59
Год выпуска: 2001
Видео: MPEG 2 VIDEO, 720*480, (NTSC 16:9), 29.97 fps, ~5788 kbps avg,0,559 bit/pixel
Аудио #1: 48,0 khz, AC 3, 6 ch, 448 kbps avg
Аудио #2: 48.0 khz, AC 3, 2 ch, 192 kbps avg
Доп. информация: Концерт в Солт-Лейк Сити, США. 5 июля 2000 года. Бонус: интервью, видеоклип.
    Состав
Vince Neil -vocals
Mick Mars - guitars
Nikki Sixx - bass
Samantha Maloney - drums
    Треклист
1. Kickstart My Heart
2. Same Ol" Situation
3. Primal Scream
4. Punched In The Teeth By Love
5. Dr. Feelgood
6. Home Sweet Home
7. Don"t Go Away Mad (Just Go Away)
8. Piece Of Your Action
9. Wild Side
10. Hell On High Heels
11. Looks That Kill
12. Girls, Girls, Girls
13. Live Wire
14. White Punks On Dope
15. Shout At The Devil
    Бонус
1. Behind The Scenes At Maximum Rock
2. The Making Of New Tattoo
3. Hell On High Heels (video clip)
4. Nobody Knows...
5. Get The Dirt
6. Web Links
Title: Motley Crue - Lewd Crued & Tattooed
Size: 4.36 Gb ( 4 571 134,00 KBytes ) - DVD-5
Enabled regions: 1, 2, 3, 4, 5, 6

VTS_01 :
Play Length: 01:16:07
Video: NTSC 16:9 (720x480) VBR, Auto Letterboxed
Audio:
English, AC3, 3/2 (L,C,R,SL,SR)+LFE ch, 448 kbps, Delay 0 mSec
English, AC3, 2/0 (L,R) ch, 192 kbps, Delay 0 mSec

VTS_02 :
Play Length: 00:08:46+00:06:39+00:04:01+00:01:05+00:00:21
Video: NTSC 4:3 (720x480) VBR
Audio:
English (Dolby AC3, 2 ch)

* Menus Information *

VIDEO_TS Menu
Video:
NTSC 4:3 (720x480) VBR
English Language Unit :
Title Menu

VTS_01 Menu
Video:
NTSC 4:3 (720x480) VBR
Audio:
Not specified (Dolby AC3, 2 ch)
English Language Unit :
Root Menu
Angle menu

VTS_02 Menu
Video:
NTSC 4:3 (720x480) VBR
English Language Unit :
Root Menu
Общее
Полное имя: D:\Video\Motley Crue - Lewd Crued & Tattooed\VIDEO_TS\VTS_01_1.VOB
Формат: MPEG-PS
Размер файла: 1024 Мбайт
Продолжительность: 21 м.
Общий поток: 6558 Кбит/сек

Видео
Идентификатор: 224 (0xE0)
Формат: MPEG Video
Версия формата: Version 2
Профиль формата: Main@Main
Параметр BVOP формата: Да
Параметр матрицы формата: По умолчанию
Параметры GOP формата: M=3, N=15
Продолжительность: 21 м.
Вид битрейта: Постоянный
Битрейт: 5788 Кбит/сек
Номинальный битрейт: 8700 Кбит/сек
Ширина: 720 пикс.
Высота: 480 пикс.
Соотношение сторон: 16:9
Частота кадров: 29,970 кадр/сек
Стандарт вещания: NTSC
Цветовое пространство: YUV
Подвыборка цветности: 4:2:0
Битовая глубина: 8 бит
Тип развёртки: Чересстрочная
Порядок развёртки: Верхнее поле первое
Метод сжатия: С потерями
Бит/(Пиксели*Кадры): 0.559
Размер потока: 904 Мбайт (88%)

Аудио #1
Идентификатор: 128 (0x80)
Формат: AC-3
Формат/Информация: Audio Coding 3
Расширение режима: CM (complete main)
Продолжительность: 21 м.
Вид битрейта: Постоянный
Битрейт: 448 Кбит/сек
Каналы: 6 каналов
Расположение каналов: Front: L C R, Side: L R, LFE
Частота: 48,0 КГц
Битовая глубина: 16 бит
Метод сжатия: С потерями
Задержка видео: -66 мс.
Размер потока: 69,9 Мбайт (7%)

Аудио #2
Идентификатор: 129 (0x81)
Формат: AC-3
Формат/Информация: Audio Coding 3
Расширение режима: CM (complete main)
Продолжительность: 21 м.
Вид битрейта: Постоянный
Битрейт: 192 Кбит/сек
Каналы: 2 канала
Расположение каналов: Front: L R
Частота: 48,0 КГц
Битовая глубина: 16 бит
Метод сжатия: С потерями
Задержка видео: -66 мс.
Размер потока: 30,0 Мбайт (3%)

Меню








[b]Поделиться:




реклама партнёра


Вернуться к началу
 Профиль Отправить личное сообщение  
 
   Похожие торренты   Автор   Торрент   Размер 
В этой теме нет новых непрочитанных сообщений. Motley Crue - Saints Of Los Angeles [2008, Glam, Heavy Metal, Hard Rock, MP3]

PriZraK

2 | 1

122.45 МБ

В этой теме нет новых непрочитанных сообщений. Motley Crue - Sex (Single) [16.07.2012, Hard Rock, MP3]

PriZraK

0 | 1

8.44 МБ

В этой теме нет новых непрочитанных сообщений. Cinderella - Stripped [Live] (Hard Rock, Glam Metal. 2014) MP3

Aleksandr.ru

98 | 12

182.42 МБ

В этой теме нет новых непрочитанных сообщений. Tattooed Lies - Spread Your Wings [2012, Hard Rock, MP3]

PriZraK

0 | 2

87.22 МБ

В этой теме нет новых непрочитанных сообщений. VA - Стальные нервы (Glam Metal and Hair Rock Classics) [2013, Glam Metal, Hair Rock, Hard Rock, Rock, MP3]

PriZraK

0 | 1

589.04 МБ

В этой теме нет новых непрочитанных сообщений. VA - Glam Rock Anthology (3CD) [2012, Glam Rock, MP3]

PriZraK

0 | 1

363.81 МБ

В этой теме нет новых непрочитанных сообщений. Miracle Master - Tattooed Woman [2014, Hard-n-Heavy, Hard Rock, MP3]

PriZraK

3 | 2

98.45 МБ


Начать новую тему Ответить на тему  [ 1 сообщение ] 




Для Мосгорсуда, Роскомнадзора и рекламодателей:: mosgorsud-torrent[собачка]yandex.ru