Торрент файл
скачать торрент магнет ссылка Добавлен: 08 янв 2012, 03:52
Размер: 8.72 ГБ
Сидеров: 2
Личеров: 5
Автор

СообщениеДобавлено: 08 янв 2012, 03:52 

Не в сети
Супермодератор
Аватара пользователя
Дата регистрации:
22 май 2010, 11:03
Возраст: 31
Спасибо: 7513 / 13
Сообщения: 49940
Manowar - Fire And Blood - Hell On Earth Part 2 + Blood In Brazil

Формат: 2xDVD5 (сжатый), DVD Video, MPEG2, AC3
Песня:Hell On Earth Part 2 + Blood In Brazil
Жанр: Heavy Metal
Продолжительность: 01:59:58+01:26:21
Год выпуска: 2002

DVD 1 - Hell On Earth Part 2

Видео: MPEG 2 VIDEO, 720*480, (NTSC 4:3), 29.97 fps, ~4668 kbps avg, 0,451 bit/pixel
Аудио: 48,0 khz, AC 3, 6 ch, 448 kbps avg
Доп. информация: Самое лучшее со всех концертов. Живое исполнение, съемки "за сценой", интервью и съемки с концертов во Франции, Бельгии, Швейцарии, Германии, Чехии, Австрии, Венгрии, Португалии и Испании.
Удалил: предостережение, бонус, AC- 3 2 ch. Видео сжато на 27%

01.This Is Heavy Metal
02.Blood Of The Kings
03.France
04.Voulez Vous
05.Belgium
06.Bridge Of Death
07.Switzerland
08.Guyana (Cult Of The Damned)
09.Germany Part I
10.Hatred
11.Germany Part II
12.March For Revenge (By The Soldiers Of Death)
13.Germany Part III
14.The Gods Made Heavy Metal
15.Czech Republic
16.Army Of The Immortals
17.Austria
18.Hungary
19.Master Of The Wind
20.Portugal
21.Dark Avenger
22.Spain
23.Battle Hymn
24.The Crown And The Ring (Lament Of The Kings
Title: DVD 1 - Hell On Earth Part 2
Size: 4.36 Gb ( 4 571 102,00 KBytes ) - DVD-5
Enabled regions: 1, 2, 3, 4, 5, 6, 7, 8

VTS_01 :
Play Length: 00:00:00+00:00:00
Video: NTSC 4:3 (720x480) VBR

VTS_02 :
Play Length: 00:00:01
Video: NTSC 16:9 (720x480) VBR, Auto Letterboxed
Audio:
English (Dolby AC3, 6 ch)

VTS_03 :
Play Length: 01:59:08
Video: NTSC 4:3 (720x480) VBR
Audio:
English, AC3, 3/2 (L,C,R,SL,SR)+LFE ch, 448 kbps, Delay -6 mSec

Subtitles:
English
Deutsch
Francais
Espanol
Italiano
Svenska
Portugues

VTS_04 :
Play Length: 00:00:01+00:00:01+00:00:01
Video: NTSC 4:3 (720x480) VBR
Audio:
English (Dolby AC3, 3 ch)
English (Dolby AC3, 2 ch)
Subtitles:
English
Deutsch
Francais
Espanol
Italiano
Svenska
Portugues

VTS_05 :
Play Length: 00:00:00
Video: NTSC 4:3 (720x480) VBR

VTS_06 :
Play Length: 00:00:00
Video: NTSC 4:3 (720x480) VBR

VTS_07 :
Play Length: 00:00:00
Video: NTSC 4:3 (720x480) VBR
Общее
Полное имя: D:\Video\Manowar - Fire And Blood\DVD 1 - Hell On Earth Part 2\VTS_03_1.VOB
Формат: MPEG-PS
Размер файла: 1024 Мбайт
Продолжительность: 27 м.
Общий поток: 5220 Кбит/сек

Видео
Идентификатор: 224 (0xE0)
Формат: MPEG Video
Версия формата: Version 2
Профиль формата: Main@Main
Параметр BVOP формата: Да
Параметр матрицы формата: По умолчанию
Параметры GOP формата: M=3, N=13
Продолжительность: 27 м.
Вид битрейта: Постоянный
Битрейт: 4668 Кбит/сек
Номинальный битрейт: 7000 Кбит/сек
Ширина: 720 пикс.
Высота: 480 пикс.
Соотношение сторон: 4:3
Частота кадров: 29,970 кадр/сек
Стандарт вещания: NTSC
Цветовое пространство: YUV
Подвыборка цветности: 4:2:0
Битовая глубина: 8 бит
Тип развёртки: Чересстрочная
Порядок развёртки: Верхнее поле первое
Метод сжатия: С потерями
Бит/(Пиксели*Кадры): 0.451
Размер потока: 916 Мбайт (89%)

Аудио
Идентификатор: 128 (0x80)
Формат: AC-3
Формат/Информация: Audio Coding 3
Расширение режима: CM (complete main)
Продолжительность: 27 м.
Вид битрейта: Постоянный
Битрейт: 448 Кбит/сек
Каналы: 6 каналов
Расположение каналов: Front: L C R, Side: L R, LFE
Частота: 48,0 КГц
Битовая глубина: 16 бит
Метод сжатия: С потерями
Задержка видео: -7 мс.
Размер потока: 87,9 Мбайт (9%)

Текст #1
Идентификатор: 32 (0x20)
Формат: RLE
Формат/Информация: Run-length encoding
Задержка видео: 1 с. 335 мс.

Текст #2
Идентификатор: 33 (0x21)
Формат: RLE
Формат/Информация: Run-length encoding
Задержка видео: 1 с. 335 мс.

Текст #3
Идентификатор: 34 (0x22)
Формат: RLE
Формат/Информация: Run-length encoding
Задержка видео: 1 с. 335 мс.

Текст #4
Идентификатор: 35 (0x23)
Формат: RLE
Формат/Информация: Run-length encoding
Задержка видео: 1 с. 335 мс.

Текст #5
Идентификатор: 36 (0x24)
Формат: RLE
Формат/Информация: Run-length encoding
Задержка видео: 1 с. 335 мс.

Текст #6
Идентификатор: 37 (0x25)
Формат: RLE
Формат/Информация: Run-length encoding
Задержка видео: 1 с. 335 мс.

Текст #7
Идентификатор: 38 (0x26)
Формат: RLE
Формат/Информация: Run-length encoding
Задержка видео: 1 с. 335 мс.

Меню









[b]DVD 2 - Blood In Brazil


Видео: MPEG 2 Video, 720*480 (NTSC 4:3), 29.97 fps, ~6278 kbps avg, 0,606 bit/pixel
Аудио #1: 48.0 khz, AC 3, 6 ch, 448 kbps avg
Аудио #2: 48.0 khz, AC 3, 2 ch, 224 kbps abg
Доп. информация: Концерт в Сан-Паоло, Бразилия. 26 сентября 1998 года.
Удалил: предостережение, бонус. Видео сжато на 10%



01. Intro
02.Manowar
03.Metal Daze
04.Blood Of My Enemies
05.Kill With Power
06.Sign Of The Hammer
07.Gates Of Valhalla
08.Sting Of The Bumblebee
09.The Gods Made Heavy Metal
10.Metal Warriors
11.Kings Of Metal
12.The Power
13.Hail And Kill
14.Black Wind, Fire And Steel
15.The Crown And The Ring (Lament Of The Kings)
Title: DVD 2 - Blood In Brazil
Size: 4.36 Gb ( 4 571 098,00 KBytes ) - DVD-5
Enabled regions: 1, 2, 3, 4, 5, 6, 7, 8

VTS_01 :
Play Length: 00:00:00+00:00:00
Video: NTSC 4:3 (720x480) VBR

VTS_02 :
Play Length: 00:00:01
Video: NTSC 16:9 (720x480) VBR, Auto Pan&Scan, Auto Letterboxed
Audio:
Not specified (Dolby AC3, 6 ch)

VTS_03 :
Play Length: 01:26:21
Video: NTSC 4:3 (720x480) VBR
Audio:
English, AC3, 3/2 (L,C,R,SL,SR)+LFE ch, 448 kbps, Delay -13 mSec
English, AC3, 2/0 (L,R) ch, 224 kbps, Delay -13 mSec

Subtitles:
English
Deutsch
Francais
Espanol
Italiano
Svenska
Portugues

VTS_04 :
Play Length: 00:00:01+00:00:05+00:00:03+00:00:01+00:00:01
Video: NTSC 4:3 (720x480) VBR
Audio:
English (Dolby AC3, 2 ch)
English (Dolby AC3, 2 ch)
Subtitles:
English
Deutsch
Francais
Espanol
Italiano
Svenska
Portugues

VTS_05 :
Play Length: 00:00:00
Video: NTSC 4:3 (720x480) VBR

VTS_06 :
Play Length: 00:00:00
Video: NTSC 4:3 (720x480) VBR

VTS_07 :
Play Length: 00:00:00
Video: NTSC 4:3 (720x480) VBR

VTS_08 :
Play Length: 00:00:00
Video: NTSC 4:3 (720x480) VBR

VTS_09 :
Play Length: 00:00:00
Video: NTSC 4:3 (720x480) VBR
Общее
Полное имя: D:\Video\Manowar - Fire And Blood\DVD 2 - Blood In Brazil\VTS_03_1.VOB
Формат: MPEG-PS
Размер файла: 1024 Мбайт
Продолжительность: 20 м.
Общий поток: 7091 Кбит/сек

Видео
Идентификатор: 224 (0xE0)
Формат: MPEG Video
Версия формата: Version 2
Профиль формата: Main@Main
Параметр BVOP формата: Да
Параметр матрицы формата: По умолчанию
Параметры GOP формата: M=3, N=4
Продолжительность: 20 м.
Вид битрейта: Постоянный
Битрейт: 6278 Кбит/сек
Номинальный битрейт: 7000 Кбит/сек
Ширина: 720 пикс.
Высота: 480 пикс.
Соотношение сторон: 4:3
Частота кадров: 29,970 кадр/сек
Стандарт вещания: NTSC
Цветовое пространство: YUV
Подвыборка цветности: 4:2:0
Битовая глубина: 8 бит
Тип развёртки: Чересстрочная
Порядок развёртки: Верхнее поле первое
Метод сжатия: С потерями
Бит/(Пиксели*Кадры): 0.606
Размер потока: 907 Мбайт (89%)

Аудио #1
Идентификатор: 128 (0x80)
Формат: AC-3
Формат/Информация: Audio Coding 3
Расширение режима: CM (complete main)
Продолжительность: 20 м.
Вид битрейта: Постоянный
Битрейт: 448 Кбит/сек
Каналы: 6 каналов
Расположение каналов: Front: L C R, Side: L R, LFE
Частота: 48,0 КГц
Битовая глубина: 16 бит
Метод сжатия: С потерями
Задержка видео: -14 мс.
Размер потока: 64,7 Мбайт (6%)

Аудио #2
Идентификатор: 129 (0x81)
Формат: AC-3
Формат/Информация: Audio Coding 3
Расширение режима: CM (complete main)
Продолжительность: 20 м.
Вид битрейта: Постоянный
Битрейт: 224 Кбит/сек
Каналы: 2 канала
Расположение каналов: Front: L R
Частота: 48,0 КГц
Битовая глубина: 16 бит
Метод сжатия: С потерями
Задержка видео: -14 мс.
Размер потока: 32,3 Мбайт (3%)

Меню









[b]Поделиться:




реклама партнёра


Вернуться к началу
 Профиль Отправить личное сообщение  
 
   Похожие торренты   Автор   Торрент   Размер 
В этой теме нет новых непрочитанных сообщений. Blood God - Blood Is My Trademark (Limited Edition) [2014, Hard-n-Heavy, MP3]

PriZraK

7 | 3

249.09 МБ

В этой теме нет новых непрочитанных сообщений. Hate Forest - Blood & Fire [2001, Black Metal, MP3]

PriZraK

0 | 1

57.37 МБ

В этой теме нет новых непрочитанных сообщений. Beastwars - Blood Becomes Fire [2013,Sludge Metal,Stoner Metal,MP3]

PriZraK

0 | 1

93.76 МБ

В этой теме нет новых непрочитанных сообщений. Bonded by Blood - Exiled to Earth [2010, Thrash Metal, MP3]

PriZraK

0 | 1

96.69 МБ

В этой теме нет новых непрочитанных сообщений. Suffocation - Blood Oath (Blood Red Edition) [2009, Brutal Death Metal, MP3]

PriZraK

0 | 1

114.83 МБ

В этой теме нет новых непрочитанных сообщений. VA - Revenge: In The Triumph Of... (Tribute To Manowar) [2002, Heavy Metal, MP3]

PriZraK

0 | 1

141.35 МБ

В этой теме нет новых непрочитанных сообщений. Exodus - Blood In, Blood Out [2014, Thrash Metal, MP3]

PriZraK

19 | 2

154.82 МБ


Начать новую тему Ответить на тему  [ 1 сообщение ] 




Для Мосгорсуда, Роскомнадзора и рекламодателей:: mosgorsud-torrent[собачка]yandex.ru