Торрент файл
скачать торрент магнет ссылка Добавлен: 08 янв 2012, 03:52
Размер: 3.81 ГБ
Сидеров: 6
Личеров: 8
Автор

СообщениеДобавлено: 08 янв 2012, 03:52 

Не в сети
Супермодератор
Аватара пользователя
Дата регистрации:
22 май 2010, 11:03
Возраст: 31
Спасибо: 7509 / 13
Сообщения: 49940
VA - Лучшее от ELLO Vol. 11


Формат: DVD5, DVD Video, MPEG2, AC3
Песня: Лучшее от ELLO Vol. 11
Жанр: Pop
Продолжительность: 01:56:36
Год выпуска: 2011
Видео: 720х576 (PAL 4:3), 25 fps, MPEG-2, ~4219 kbps avg, 0.407 bit/pixel
Аудио: 48 kHz, АС-3 , 2 ch, 192.00 kbps avg
Доп. информация: Материал взят с канала Ello - который представляет в свою очередь новинки как российской так и зарубежной попсы. Отличный профессиональный музыкальный канал. Здесь можно увидеть как звезд так и совершенно молодых исполнителей. Предлагаю Вашему вниманию ОДИНАДЦАТУЮ подбороку с этого канала.
01 Точка G - Я убита, ты попал
02 Лавика - Осень - это я
03 XS - Вооружена и опасна
04 А. Гросу - Давай запомним это лето
05 69 - Но не смогла
06 Девушки Эйнштейна – Балерины
07 Виа Гра – ЛМЛ
08 Камалия - Розовый закат
09 Марта - Для него
10 Dan Balan - Лишь до утра
11 А. Лорак – Спроси
12 С. Филиппов - Скучаю
13 Ёлка- Бросай
14 Дискотека Авария - Нано–Техно
15 LOBODA - На Свете
16 Пара Нормальных - Ах, Ира
17 KAMON!!! feat. Richard Gorn – Фотоаппарат
18 Д. Скитова - Не удержать
19 Пилигрим – Марта
20 Ksenona feat. Alex OD - Нелюбимый, нелюбимый
21 Н. Королева - Не отпускай
22 Г. Лепс – Вьюга
23 NikitA – 2012
24 Винтаж - Мама-Мия
25 Е. Сесарев - Дай мне руку
26 N.A.O.M.I. - Говорило лето
27 Stereoplen – Каприз
28 Алисa - Кто я теперь
29 ЛОТОS - Если бы...
30 4 Короля - Летели листья
31 Д. Султан - Энергия любви
32 MMDANCE - Мой Босс

Общее
Полное имя: C:\Tfile\luchshee_ot_ello_vol11_[tfile.ru]\VIDEO_TS\VTS_01_1.VOB
Формат: MPEG-PS
Размер файла: 1024 Мбайт
Продолжительность: 31 м.
Общий поток: 4501 Кбит/сек

Видео
Идентификатор: 224 (0xE0)
Формат: MPEG Video
Версия формата: Version 2
Профиль формата: Main@Main
Параметр BVOP формата: Да
Параметр матрицы формата: По умолчанию
Параметры GOP формата: M=3, N=15
Продолжительность: 31 м.
Вид битрейта: Переменный
Битрейт: 4219 Кбит/сек
Номинальный битрейт: 9008 Кбит/сек
Ширина: 720 пикс.
Высота: 576 пикс.
Соотношение сторон: 4:3
Частота кадров: 25,000 кадр/сек
Стандарт вещания: PAL
Цветовое пространство: YUV
Подвыборка цветности: 4:2:0
Битовая глубина: 8 бит
Тип развёртки: Прогрессивная
Метод сжатия: С потерями
Бит/(Пиксели*Кадры): 0.407
Размер потока: 960 Мбайт (94%)

Аудио
Идентификатор: 128 (0x80)
Формат: AC-3
Формат/Информация: Audio Coding 3
Расширение режима: CM (complete main)
Продолжительность: 31 м.
Вид битрейта: Постоянный
Битрейт: 192 Кбит/сек
Канал(ы): 2 канала(ов)
Расположение каналов: Front: L R
Частота: 48,0 КГц
Битовая глубина: 16 бит
Метод сжатия: С потерями
Размер потока: 43,7 Мбайт (4%)












Поделиться:




реклама партнёра


Вернуться к началу
 Профиль Отправить личное сообщение  
 
   Похожие торренты   Автор   Торрент   Размер 
В этой теме нет новых непрочитанных сообщений. Освенцим / Auschwitz [драма, 2011] DVD5, Mvo+Sub [лицензия]

Dracon

57 | 7

3.77 ГБ

В этой теме нет новых непрочитанных сообщений. Уловка .44 / Catch .44 [триллер, драма, криминал, 2011] DVD5, Mvo+Sub

salma3

10 | 8

4.37 ГБ

В этой теме нет новых непрочитанных сообщений. Многоэтажка / Небоскреб смерти / Tower Block [триллер, 2011] DVD5, Mvo+Sub

salma3

9 | 7

4.32 ГБ

В этой теме нет новых непрочитанных сообщений. Военные игры / War Games: At the End of the Day [Триллер, боевик, ужасы, 2011] DVD5, Mvo

salma3

15 | 11

4.35 ГБ

В этой теме нет новых непрочитанных сообщений. Маленький убийца / Little Murder [триллер, драма, 2011] DVD5, Mvo [лицензия]

salma3

0 | 2

3.93 ГБ

В этой теме нет новых непрочитанных сообщений. 12 Рождественских желаний / 12 Wishes of Christmas [фэнтези, комедия, 2011] DVD5, Mvo [лицензия]

salma3

48 | 7

3.92 ГБ

В этой теме нет новых непрочитанных сообщений. Последний час Земли / Earth's Final Hours [Фантастика, 2011] DVD5, Mvo [Лицензия]

salma3

41 | 14

4.01 ГБ


Начать новую тему Ответить на тему  [ 1 сообщение ] 




Для Мосгорсуда, Роскомнадзора и рекламодателей:: mosgorsud-torrent[собачка]yandex.ru