Торрент файл
скачать торрент магнет ссылка Добавлен: 08 янв 2012, 03:50
Размер: 3.83 ГБ
Сидеров: 17
Личеров: 17
Автор

СообщениеДобавлено: 08 янв 2012, 03:50 

Не в сети
Супермодератор
Аватара пользователя
Дата регистрации:
22 май 2010, 11:03
Возраст: 32
Спасибо: 7690 / 13
Сообщения: 49871
VA - Дискотека 80-х. Песни моей мамы Vol.4


Формат: DVD5, DVD Video, MPEG2, AC3
Песня: Дискотека 80-х. Песни моей мамы Vol.4
Жанр: Pop, Disco
Продолжительность: 01:55:46
Год выпуска: 1983-1995

Видео: 720х576 (PAL 4:3), 25 fps, MPEG-2, ~4058 kbps avg, 0.391 bit/pixel
Аудио: 48 kHz, AC-3 , 2 ch, 192.00 kbps avg

Доп. информация: В четвертом альбоме продолжение подборки песен, которые помогут создать картину событий прошлого и вспомнить - как наши мамы проводили свой досуг на дискотеке 80-х в великой стране которой больше нет - в СССР.

001 Браво - Черный кот (1990)
002 С. Минаев - Деньги (1989)
003 О. Кормухина - Усталое такси (1987)
004 В. Добрынин - Колдовское озеро (1990)
005 Комбинация - Два кусочека колбаски (1992)
006 А. Барыкин - 20-00 (1987)
007 Рондо - Бледный бармен (1989)
008 В. Леонтьев - Куда уехал цирк (1986)
009 Маленький принц - Прощай (1989)
010 И. Аллегрова - Суженный мой (1994)
011 К. Никольский - Музыкант (1992)
012 Фея и И. Смирнова - Наша музыка (1989)
013 Ю. Антонов - Крыша дома твоего (1983)
014 С. Чумаков - От весны и до весны (1994)
015 М. Боярский - Большая медведица (1984)
016 ПланетаИкс и В. Агафонов- Лебеди (1988)
017 Ж. Белоусов - Алешка (1990)
018 Альфа и С. Сарычев - Цунами (1986)
019 Т. Буланова - Плачу(1994)
020 Мираж -Ты словно тень (1992)
021 Сладкий сон и С. Васюта - На белом покрывале января (1990)
022 Е. Осин - Плачет девушка в автомате (1994)
023 Стелла - Девочка без сердца (1990)
024 Ника - Сколько лет, сколько зим (1995)
025 Весёлые ребята - Розовые розы (1989)
026 Анастасия - Неотправленное письмо (1994)
027 М. Муромов - Ирэн 1990
028 Фристайл - Догорает свеча (1990)
029 Сталкер - Когда ты уйдешь (1989)
030 Юрий Лоза - Плот (1990)

Общее
Полное имя: C:\Tfile\pesni_moey_mami_vol4_[tfile.ru]\VIDEO_TS\VTS_01_1.VOB
Формат: MPEG-PS
Размер файла: 1024 Мбайт
Продолжительность: 33 м.
Общий поток: 4336 Кбит/сек

Видео
Идентификатор: 224 (0xE0)
Формат: MPEG Video
Версия формата: Version 2
Профиль формата: Main@Main
Параметр BVOP формата: Да
Параметр матрицы формата: По умолчанию
Продолжительность: 33 м.
Вид битрейта: Переменный
Битрейт: 4058 Кбит/сек
Номинальный битрейт: 9008 Кбит/сек
Ширина: 720 пикс.
Высота: 576 пикс.
Соотношение сторон: 4:3
Частота кадров: 25,000 кадр/сек
Стандарт вещания: PAL
Цветовое пространство: YUV
Подвыборка цветности: 4:2:0
Битовая глубина: 8 бит
Тип развёртки: Прогрессивная
Метод сжатия: С потерями
Бит/(Пиксели*Кадры): 0.391
Размер потока: 958 Мбайт (94%)

Аудио
Идентификатор: 128 (0x80)
Формат: AC-3
Формат/Информация: Audio Coding 3
Расширение режима: CM (complete main)
Продолжительность: 33 м.
Вид битрейта: Постоянный
Битрейт: 192 Кбит/сек
Канал(ы): 2 канала(ов)
Расположение каналов: Front: L R
Частота: 48,0 КГц
Битовая глубина: 16 бит
Метод сжатия: С потерями
Размер потока: 45,3 Мбайт (4%)












Поделиться:




реклама партнёра


Вернуться к началу
 Профиль Отправить личное сообщение  
 
   Похожие торренты   Автор   Торрент   Размер 
В этой теме нет новых непрочитанных сообщений. VA - Дискотека забытых хитов (3) [Pop, Disco, Italo Disco, 2017] MP3 / 320kbps

salma3

145 | 9

631.48 МБ

В этой теме нет новых непрочитанных сообщений. VA - Дискотека забытых хитов (4) [Pop, Disco, Italo Disco, 2017] MP3 / 256-320kbps

salma3

402 | 55

695.61 МБ

В этой теме нет новых непрочитанных сообщений. VA - Дискотека забытых хитов (2) [Disco, Italo Disco, 2017] MP3 / 256-320kbps

salma3

253 | 31

680.2 МБ

В этой теме нет новых непрочитанных сообщений. VA - Дискотека забытых хитов (5) [Pop, Disco, Italo Disco, 2017] MP3 / 320kbps

salma3

221 | 23

628.17 МБ

В этой теме нет новых непрочитанных сообщений. VA - Дискотека забытых хитов (1) [Disco, Italo Disco, 2017] MP3 / 320kbps

salma3

688 | 55

684.16 МБ

В этой теме нет новых непрочитанных сообщений. VA - Дискотека 80-90х по-новому 2 [2015, Disco, Pop, MP3]

Nickolas3435

647 | 15

1002.89 МБ

В этой теме нет новых непрочитанных сообщений. VA - Турбо дискотека 50 на 50 [Pop, Disco, 2014] MP3, 256kbps

Dracon

49 | 4

671.01 МБ


Начать новую тему Ответить на тему  [ 1 сообщение ] 




Для Мосгорсуда, Роскомнадзора и рекламодателей:: mosgorsud-torrent[собачка]yandex.ru