Торрент файл
скачать торрент магнет ссылка Добавлен: 08 янв 2012, 03:49
Размер: 4.32 ГБ
Сидеров: 3
Личеров: 6
Автор

СообщениеДобавлено: 08 янв 2012, 03:49 

Не в сети
Супермодератор
Аватара пользователя
Дата регистрации:
22 май 2010, 11:03
Возраст: 31
Спасибо: 7513 / 13
Сообщения: 49940

Scorpions - Unbreakable World Tour 2004 - One Night in Vienna Live


Формат: DVD5, DVD Video, MPEG2, AC3
Песня: Unbreakable World Tour 2004 - One Night in Vienna Live
Жанр: Hard Rock
Продолжительность: 02:27:43
Год выпуска: 2005

Видео: 720х576 (PAL 4:3), 25 fps, MPEG-2, ~4156 kbps avg, 0.401 bit/pixel
Аудио №1: 48 kHz, AC-3 , 6 ch (Front: L C R, Side: L R, LFE), 448.00 kbps avg
Аудио №2: 48 kHz, AC-3 , 2 ch (Front: L R), 224.00 kbps avg

Доп. информация:
Состав группы: Клаус Майне, Рудольф Шенкер, Маттиас Ябс, Павел Мачивода, Джеймс Коттак


После 5-ти лет экспериментов, Scorpions громко возвращаются на мировую хард-н-хэви арену с новым рок-альбомом "Unbreakable", который увидел свет 21 апреля 2004 года. Критики назвали его самым "тяжелым" после альбома "Face the Heat", а поклонники группы были в восторге от новых песен: "New Generation", "Love 'em or Leave 'em", "Through My Eyes", "Deep and Dark", "Maybe I Maybe You".

В июле 2005 года выходит DVD "One Night In Vienna", или полное название - "Unbreakable World Tour 2004 - One Night in Vienna Live", который состоит из 2-х частей: одна посвящена преимущественно незабываемому концерту в Вене, который состоялся летом 2004-го на одном из островов Дуная, а вторая часть - это уникальный материал "Rockumentary" - т.е. очень обширная история группы SCORPIONS: интервью, частные видео, клипы и многое другое, что позволяет довольно глубоко проникнуть в историю группы.


Язык: Английский, Немецкий, Испанский (Только бонус)

Треклист:
01. New Generation 5:01
02. Love`Em or leave`Em 4:32
03. Bad Boys Running Wild 3:56
04. The Zoo 6:21
05. Deep and Dark 3:58
06. Coast to Coast 4:33
07. Holiday 4:25
08. Through My Eyes 5:02
09. Blackout 3:56
10. Blood Too Hot 4:11
11. Big City Nights %:25
12. Still Loving You 6:14
13. Wind of Change 5:21
14. Rock You like A Hurricane 7:21
Бонусный клип:
Remember the Good Times 3:17

Полное имя: C:\Tfile\scorpions_one_night_in_vienna_[tfile.ru]\VIDEO_TS\VTS_01_1.VOB
Формат: MPEG-PS
Размер файла: 1024 Мбайт
Продолжительность: 29 м.
Общий поток: 4926 Кбит/сек

Видео
Идентификатор: 224 (0xE0)
Формат: MPEG Video
Версия формата: Version 2
Профиль формата: Main@Main
Параметр BVOP формата: Да
Параметр матрицы формата: По умолчанию
Параметры GOP формата: M=2, N=12
Продолжительность: 29 м.
Вид битрейта: Переменный
Битрейт: 4156 Кбит/сек
Номинальный битрейт: 9800 Кбит/сек
Ширина: 720 пикс.
Высота: 576 пикс.
Соотношение сторон: 4:3
Частота кадров: 25,000 кадр/сек
Стандарт вещания: PAL
Цветовое пространство: YUV
Подвыборка цветности: 4:2:0
Битовая глубина: 8 бит
Тип развёртки: Чересстрочная
Порядок развёртки: Нижнее поле первое
Метод сжатия: С потерями
Бит/(Пиксели*Кадры): 0.401
Размер потока: 864 Мбайт (84%)

Аудио #1
Идентификатор: 128 (0x80)
Формат: AC-3
Формат/Информация: Audio Coding 3
Расширение режима: CM (complete main)
Продолжительность: 29 м.
Вид битрейта: Постоянный
Битрейт: 448 Кбит/сек
Канал(ы): 6 канала(ов)
Расположение каналов: Front: L C R, Side: L R, LFE
Частота: 48,0 КГц
Битовая глубина: 16 бит
Метод сжатия: С потерями
Задержка видео: 1 с. 368 мс.
Размер потока: 93,0 Мбайт (9%)

Аудио #2
Идентификатор: 129 (0x81)
Формат: AC-3
Формат/Информация: Audio Coding 3
Расширение режима: CM (complete main)
Продолжительность: 29 м.
Вид битрейта: Постоянный
Битрейт: 224 Кбит/сек
Канал(ы): 2 канала(ов)
Расположение каналов: Front: L R
Частота: 48,0 КГц
Битовая глубина: 16 бит
Метод сжатия: С потерями
Задержка видео: 1 с. 368 мс.
Размер потока: 46,5 Мбайт (5%)














Поделиться:




реклама партнёра


Вернуться к началу
 Профиль Отправить личное сообщение  
 
   Похожие торренты   Автор   Торрент   Размер 
В этой теме нет новых непрочитанных сообщений. Scorpions - MTV Unplugged: Live In Athens (2CD) [2013, Hard Rock, MP3]

PriZraK

33 | 3

262.02 МБ

В этой теме нет новых непрочитанных сообщений. Meroe - One Night At The Pool (Live) [2013, Hard Rock, MP3]

PriZraK

0 | 2

129.54 МБ

В этой теме нет новых непрочитанных сообщений. Escape - Unbreakable [2012, Melodic Hard Rock, AOR, MP3]

PriZraK

0 | 1

162.5 МБ

В этой теме нет новых непрочитанных сообщений. Madonna - The Re-Invention World tour (live) [Поп, 2010] DVDRip

salma3

3 | 1

2.05 ГБ

В этой теме нет новых непрочитанных сообщений. Scorpions - The Platinum Collection [2005, Rock, MP3, 3CD]

PriZraK

51 | 4

492.04 МБ

В этой теме нет новых непрочитанных сообщений. Scorpions - MTV Unplugged: The Studio Edits [2014, Hard Rock, Acoustic, MP3]

PriZraK

18 | 5

96 МБ

В этой теме нет новых непрочитанных сообщений. Kiss - Monster (Limited Tour Edition) [2013, Hard Rock,Glam Rock, MP3]

PriZraK

4 | 3

110.48 МБ


Начать новую тему Ответить на тему  [ 1 сообщение ] 




Для Мосгорсуда, Роскомнадзора и рекламодателей:: mosgorsud-torrent[собачка]yandex.ru