Торрент файл
скачать торрент магнет ссылка Добавлен: 08 янв 2012, 03:47
Размер: 7.86 ГБ
Сидеров: 2
Личеров: 3
Автор

СообщениеДобавлено: 08 янв 2012, 03:47 

Не в сети
Супермодератор
Аватара пользователя
Дата регистрации:
22 май 2010, 11:03
Возраст: 31
Спасибо: 7508 / 13
Сообщения: 49940
Hypocrisy - Hell Over Sofia - 20 Years Of Chaos And Confusion

Формат: DVD9, DVD Video, MPEG2, AC3
Песня: Hell Over Sofia - 20 Years Of Chaos And Confusion
Жанр: Melodic Death Metal
Продолжительность: 02:59:06
Год выпуска: 2011
Видео: MPEG 2 VIDEO, 720*576 (PAL 16:9), 25.00 fps,~ 5896 kbps avg, 0.569 bit/pixel
Аудио: 48.0 khz, AC 3, 2 ch, 224 kbps avg
Доп. информация: Концерт в Софии, Болгария. 27 февраля 2010 года. Документальный фильм о творчестве группы. Видеоклип Weed Out the Weak.

Треклист концерта

01. Valley of the Damned
02. Hang Him High
03. Fractured Millennium
04. Adjusting the Sun
05. Eraser
06. Pleasures of Molestation / Osculum Obscenum / Penetralia
07. Apocalypse / The Fourth Dimension
08. Killing Art
09. A Coming Race
10. Let the Knife Do the Talking
11. Weed Out the Weak
12. Fire in the Sky
13. The Final Chapter
14. Warpath
15. Roswell 47
Title: Hypocrisy - Hell Over Sofia - 20 Years Of Chaos And Confusion
Size: 7.86 Gb ( 8 243 698,00 KBytes ) - DVD-9
Enabled regions: 1, 2, 3, 4, 5, 6, 7, 8

VTS_01 :
Play Length: 00:00:10+00:00:43
Video: PAL 16:9 (720x576) VBR, Auto Letterboxed
Audio:
Not specified (Dolby AC3, 2 ch)

VTS_02 :
Play Length: 01:24:59
Video: PAL 16:9 (720x576) VBR, Auto Letterboxed
Audio:
Not specified (Dolby AC3, 2 ch)

VTS_03 :
Play Length: 01:29:51+00:04:16
Video: PAL 16:9 (720x576) VBR, Auto Letterboxed
Audio:
Not specified, AC3, 2/0 (L,R) ch, 224 kbps, Delay 0 mSec

Subtitles:
English

* Menus Information *

VIDEO_TS Menu
Video:
PAL 16:9 (720x576) VBR
Auto Letterboxed
Audio:
Not specified (Dolby AC3, 2 ch)
English Language Unit :
Title Menu

VTS_01 Menu
Video:
PAL 16:9 (720x576) VBR
Auto Letterboxed
English Language Unit :
Root Menu

VTS_02 Menu
Video:
PAL 16:9 (720x576) VBR
Auto Letterboxed
Audio:
Not specified (Dolby AC3, 2 ch)
English Language Unit :
Root Menu
Subpicture Menu

VTS_03 Menu
Video:
PAL 16:9 (720x576) VBR
Auto Letterboxed
Audio:
Not specified (Dolby AC3, 2 ch)
English Language Unit :
Root Menu
Общее
Полное имя: D:\Torrents\Download\Hypocrisy - Hell Over Sofia - 20 Years Of Chaos And Confusion\VIDEO_TS\VTS_02_1.VOB
Формат: MPEG-PS
Размер файла: 1024 Мбайт
Продолжительность: 22 м.
Общий поток: 6244 Кбит/сек

Видео
Идентификатор: 224 (0xE0)
Формат: MPEG Video
Версия формата: Version 2
Профиль формата: Main@Main
Параметр BVOP формата: Да
Параметр матрицы формата: По умолчанию
Продолжительность: 22 м.
Вид битрейта: Переменный
Битрейт: 5896 Кбит/сек
Номинальный битрейт: 8500 Кбит/сек
Ширина: 720 пикс.
Высота: 576 пикс.
Соотношение сторон: 16:9
Частота кадров: 25,000 кадр/сек
Стандарт вещания: PAL
Цветовое пространство: YUV
Подвыборка цветности: 4:2:0
Битовая глубина: 8 бит
Тип развёртки: Прогрессивная
Порядок развёртки: Нижнее поле первое
Метод сжатия: С потерями
Бит/(Пиксели*Кадры): 0.569
Размер потока: 967 Мбайт (94%)

Аудио
Идентификатор: 128 (0x80)
Формат: AC-3
Формат/Информация: Audio Coding 3
Расширение режима: CM (complete main)
Продолжительность: 22 м.
Вид битрейта: Постоянный
Битрейт: 224 Кбит/сек
Каналы: 2 канала
Расположение каналов: Front: L R
Частота: 48,0 КГц
Битовая глубина: 16 бит
Метод сжатия: С потерями
Размер потока: 36,7 Мбайт (4%)

Меню








[b]Поделиться:




реклама партнёра


Вернуться к началу
 Профиль Отправить личное сообщение  
 
   Похожие торренты   Автор   Торрент   Размер 
В этой теме нет новых непрочитанных сообщений. Hypocrisy - End Of Disclosure (LP+7"EP) (Vinyl-Rip) [2013, Melodic Death Metal, MP3]

PriZraK

0 | 1

115.24 МБ

В этой теме нет новых непрочитанных сообщений. Hypocrisy - End Of Disclosure (Limited Edition) [2013, Melodic Death Metal, MP3]

PriZraK

0 | 2

109.31 МБ

В этой теме нет новых непрочитанных сообщений. Arkan - Sofia [2014, Oriental Metal, Melodic Death, MP3]

PriZraK

0 | 1

115.36 МБ

В этой теме нет новых непрочитанных сообщений. Chaos Divine - The Human Connection [2011, Melodic Death Metal, Progressive, MP3]

PriZraK

0 | 1

100.09 МБ

В этой теме нет новых непрочитанных сообщений. Divine Chaos - A New Dawn In The Age Of War [2014, Melodic Death Metal, Thrash Metal, MP3]

PriZraK

0 | 1

118.41 МБ

В этой теме нет новых непрочитанных сообщений. Chaos Before Gea - Erebo [2013, Modern, Melodic Death Metal, MP3]

PriZraK

0 | 1

101.19 МБ

В этой теме нет новых непрочитанных сообщений. Circle Of Chaos - Crossing The Line [2014, Melodic Death Metal, MP3]

PriZraK

0 | 1

79.05 МБ


Начать новую тему Ответить на тему  [ 1 сообщение ] 




Для Мосгорсуда, Роскомнадзора и рекламодателей:: mosgorsud-torrent[собачка]yandex.ru