Торрент файл
скачать торрент магнет ссылка Добавлен: 08 янв 2012, 03:47
Размер: 7.93 ГБ
Сидеров: 7
Личеров: 8
Автор

СообщениеДобавлено: 08 янв 2012, 03:47 

Не в сети
Супермодератор
Аватара пользователя
Дата регистрации:
22 май 2010, 11:03
Возраст: 32
Спасибо: 7696 / 13
Сообщения: 49871
Iron Maiden - Live At Donington

Формат: DVD9, DVD Video, MPEG2, PCM
Песня: Live At Donington
Жанр: Heavy Metal
Продолжительность: 01:55:48
Год выпуска: 1992
Видео: MPEG 2 VIDEO, 720*480, (NTSC 4:3), 29.97 fps, ~8033 kbps avg, 0,776 bit/pixel
Аудио: 48.0 khz, PCM, 2 ch, 1536 kbps avg
Доп. информация: Концерт на фестивале Monsters Of Rock в Castle Donington. 22 августа 1992 года.

За DVD спасибо YUKOV
    Состав

Bruce Dickinson - vocals
Dave Murray - guitars
Janick Gers - guitars
Steve Harris - bass
Nicko McBrain - drums
    Треклист

01. Be Quick or Be Dead
02. The Number of the Beast
03. Wrathchild
04. From Here to Eternity
05. Can I Play with Madness
06. Wasting Love
07. Tailgunner
08. The Evil That Men Do
09. Afraid to Shoot Strangers
10. Fear of the Dark
11. Bring Your Daughter...To the Slaughter
12. The Clairvoyant
13. Heaven Can Wait
14. Run to the Hills
15. 2 Minutes to Midnight
16. Iron Maiden
17. Hallowed Be Thy Name
18. The Trooper
19. Sanctuary
20. Running Free (with Adrian Smith)
Title: Iron Maiden - Live At Donington
Size: 7.93 Gb ( 8 318 974,00 KBytes ) - DVD-9
Enabled regions: 1, 2, 3, 4, 5, 6, 7, 8

VTS_01 :
Play Length: 01:55:48
Video: NTSC 4:3 (720x480) VBR
Audio:
English, LPCM, Delay = 0 mSec

* Menus Information *

VIDEO_TS Menu
Video:
NTSC 4:3 (720x480) VBR
Auto Pan&Scan, Auto Letterboxed
Language Unit :
Title Menu

VTS_01 Menu
Video:
NTSC 4:3 (720x480) VBR
Language Unit :
Root Menu
Общее
Полное имя: D:\Torrents\Download\Iron Maiden - Live At Donington\VIDEO_TS\VTS_01_1.VOB
Формат: MPEG-PS
Размер файла: 1024 Мбайт
Продолжительность: 14 м.
Общий поток: 9764 Кбит/сек

Видео
Идентификатор: 224 (0xE0)
Формат: MPEG Video
Версия формата: Version 2
Профиль формата: Main@Main
Параметр BVOP формата: Да
Параметр матрицы формата: По умолчанию
Параметры GOP формата: M=3, N=15
Продолжительность: 14 м.
Вид битрейта: Переменный
Битрейт: 8033 Кбит/сек
Номинальный битрейт: 8500 Кбит/сек
Ширина: 720 пикс.
Высота: 480 пикс.
Соотношение сторон: 4:3
Частота кадров: 29,970 кадр/сек
Стандарт вещания: NTSC
Цветовое пространство: YUV
Подвыборка цветности: 4:2:0
Битовая глубина: 8 бит
Тип развёртки: Чересстрочная
Порядок развёртки: Нижнее поле первое
Метод сжатия: С потерями
Бит/(Пиксели*Кадры): 0.776
Размер потока: 843 Мбайт (82%)

Аудио
Идентификатор: 160 (0xA0)
Формат: PCM
Параметр Endianness формата: Big
Параметр Sign формата: Signed
Режим смешивания: DVD-Video
Продолжительность: 14 м.
Вид битрейта: Постоянный
Битрейт: 1536 Кбит/сек
Каналы: 2 канала
Расположение каналов: Front: L R
Частота: 48,0 КГц
Битовая глубина: 16 бит
Размер потока: 161 Мбайт (16%)

Меню





[b]Поделиться:




реклама партнёра


Вернуться к началу
 Профиль Отправить личное сообщение  
 
   Похожие торренты   Автор   Торрент   Размер 
В этой теме нет новых непрочитанных сообщений. VA - Heavy Metal: Louder Than Life [2015, Hard Rock, Melodic Heavy Metal, Heavy Metal, MP3]

Nickolas3435

0 | 272

2.43 ГБ

В этой теме нет новых непрочитанных сообщений. Accept - Heavy Ballads (Heavy Metal. 2015) MP3

Aleksandr.ru

403 | 34

363.25 МБ

В этой теме нет новых непрочитанных сообщений. Aziani's Iron Girls 2 / Железные Девушки Азиани 2 (Rachel Aziani, Aziani Iron) [2017 г., All Sex, Fetish, Gonzo, Masturbation, Muscled Babes, Sex Toy Play, DVDRip]

salma3

7 | 2

1.95 ГБ

В этой теме нет новых непрочитанных сообщений. Aziani's Iron Girls 3 / Железные Девушки Азиани 3 (Rachel Aziani, Aziani Iron) [2017 г., All Sex, Fetish, Gonzo, Masturbation, Muscled Babes, Sex Toy Play, DVDRip]

salma3

5 | 2

1.97 ГБ

В этой теме нет новых непрочитанных сообщений. W.A.S.P. - Golgotha [2015, Heavy Metal, Glam Metal, Hard Rock, MP3]

salma3

0 | 0

108.17 МБ

В этой теме нет новых непрочитанных сообщений. Смерть и девушка / Death and The Maiden [триллер, 1994] WEB-DL 720p, Mvo+Sub

salma3

38 | 0

3.29 ГБ

В этой теме нет новых непрочитанных сообщений. 1992 / 1992 [01x01-10 из 10] (Джузеппе Джальярди) [2015, Драма, WEB-DL 720p | Эй Би Видео]

Dracon

0 | 1

11.71 ГБ


Начать новую тему Ответить на тему  [ 1 сообщение ] 




Для Мосгорсуда, Роскомнадзора и рекламодателей:: mosgorsud-torrent[собачка]yandex.ru