Торрент файл
скачать торрент магнет ссылка Добавлен: 08 янв 2012, 03:47
Размер: 3.95 ГБ
Сидеров: 3
Личеров: 15
Автор

СообщениеДобавлено: 08 янв 2012, 03:47 

Не в сети
Супермодератор
Аватара пользователя
Дата регистрации:
22 май 2010, 11:03
Возраст: 31
Спасибо: 7509 / 13
Сообщения: 49940
Uriah Heep - Live in The USA


Формат: DVD5, DVD Video, MPEG2, AC3
Песня: Live in The USA
Жанр: Hard Rock
Продолжительность: 01:39:41
Год выпуска: 2002

Видео: 720х480 (NTSC 16:9), 29,970 fps, MPEG-2, ~4586 kbps avg, 0.443 bit/pixel
Аудио №1: 48 kHz, AC-3 , 2 ch (Front: L R), 192.00 kbps avg
Аудио №2: 48 kHz, AC-3 , 6 ch (Front: L C R, Side: L R, LFE), 448.00 kbps avg

Доп. информация: Живая запись с американского Фестиваля Классического рока 2002

Треклист:
Концерт (01:23:41)
1. Easy Livings (Hensley)
2. Stalin’s (Hensley)
3. Rainbow Demon (Hensley)
4. I’ll Keep on Trying (Box/Byron)
5. Heartless Land (Box/P.Lanzon/M.Lanzon)
6. The Other Side of Midnight (Box/Daisley/Goalby/Kerslake/Sinclair)
7. Return to Fantasy (Hensley/Byron)
8. Rain (Hensley)
9. The Wizard (Hensley/Clarke)
10. Blind Eye (Hensley)
11. That’s The Way That It Is (Bliss)
12. The Magician’s Birthday (Hensley/Box/Kerslake)
13. Look At Yourself (Hensley)
14. Lady in Black (Hensley)
Bonus (00:16:00)
Agustically driven

Состав:
MICK BOX - Guitar and Vocals
LEE KERSLAKE - Drums and Vocals
TREVOR BOLDER - Bass Guitar and Vocals
PHIL LANZON - Keyboards and Vocals
BERNIE SHAW - Lead Vocals

Общее
Полное имя: C:\Tfile\Uriah Heep - live in the USA (2002)\VIDEO_TS\VTS_01_1.VOB
Формат: MPEG-PS
Размер файла: 1024 Мбайт
Продолжительность: 26 м.
Общий поток: 5332 Кбит/сек

Видео
Идентификатор: 224 (0xE0)
Формат: MPEG Video
Версия формата: Version 2
Профиль формата: Main@Main
Параметр BVOP формата: Да
Параметр матрицы формата: По умолчанию
Параметры GOP формата: M=3, N=6
Продолжительность: 26 м.
Вид битрейта: Переменный
Битрейт: 4586 Кбит/сек
Номинальный битрейт: 6000 Кбит/сек
Ширина: 720 пикс.
Высота: 480 пикс.
Соотношение сторон: 16:9
Частота кадров: 29,970 кадр/сек
Стандарт вещания: NTSC
Цветовое пространство: YUV
Подвыборка цветности: 4:2:0
Битовая глубина: 8 бит
Тип развёртки: Чересстрочная
Порядок развёртки: Верхнее поле первое
Метод сжатия: С потерями
Бит/(Пиксели*Кадры): 0.443
Размер потока: 881 Мбайт (86%)

Аудио #1
Идентификатор: 128 (0x80)
Формат: AC-3
Формат/Информация: Audio Coding 3
Расширение режима: CM (complete main)
Продолжительность: 26 м.
Вид битрейта: Постоянный
Битрейт: 192 Кбит/сек
Канал(ы): 2 канала(ов)
Расположение каналов: Front: L R
Частота: 48,0 КГц
Битовая глубина: 16 бит
Метод сжатия: С потерями
Задержка видео: -66 мс.
Размер потока: 36,9 Мбайт (4%)

Аудио #2
Идентификатор: 129 (0x81)
Формат: AC-3
Формат/Информация: Audio Coding 3
Расширение режима: CM (complete main)
Продолжительность: 26 м.
Вид битрейта: Постоянный
Битрейт: 448 Кбит/сек
Канал(ы): 6 канала(ов)
Расположение каналов: Front: L C R, Side: L R, LFE
Частота: 48,0 КГц
Битовая глубина: 16 бит
Метод сжатия: С потерями
Задержка видео: -66 мс.
Размер потока: 86,0 Мбайт (8%)
















Поделиться:




реклама партнёра


Вернуться к началу
 Профиль Отправить личное сообщение  
 
   Похожие торренты   Автор   Торрент   Размер 
В этой теме нет новых непрочитанных сообщений. Uriah Heep - Live In Armenia (2CD) [2011, Hard Rock, MP3]

PriZraK

1 | 1

236.81 МБ

В этой теме нет новых непрочитанных сообщений. Uriah Heep - Live In Kawasaki Japan [2010, Hard Rock, MP3]

PriZraK

2 | 2

299.28 МБ

В этой теме нет новых непрочитанных сообщений. Uriah Heep - Live at Koko [Deluxe Edition] (Hard Rock. 2015) MP3

Aleksandr.ru

32 | 4

214.56 МБ

В этой теме нет новых непрочитанных сообщений. Uriah Heep - Live at Sweden Rock Festival [2009, Hard Rock, MP3]

PriZraK

2 | 2

130.19 МБ

В этой теме нет новых непрочитанных сообщений. Uriah Heep - Into the Wild [2011, Hard Rock, MP3]

PriZraK

2 | 1

134.26 МБ

В этой теме нет новых непрочитанных сообщений. Uriah Heep - Wizards . The Best Of (2 CD) [2011, Hard Rock, MP3]

PriZraK

6 | 1

370.58 МБ

В этой теме нет новых непрочитанных сообщений. Uriah Heep - Logical Revelations [2012, Hard Rock, MP3]

PriZraK

4 | 1

180.33 МБ


Начать новую тему Ответить на тему  [ 1 сообщение ] 




Для Мосгорсуда, Роскомнадзора и рекламодателей:: mosgorsud-torrent[собачка]yandex.ru