Торрент файл
скачать торрент магнет ссылка Добавлен: 08 янв 2012, 03:46
Размер: 3.39 ГБ
Сидеров: 0
Личеров: 7
Автор

СообщениеДобавлено: 08 янв 2012, 03:46 

Не в сети
Супермодератор
Аватара пользователя
Дата регистрации:
22 май 2010, 11:03
Возраст: 32
Спасибо: 7690 / 13
Сообщения: 49871
Богдан Титомир - X-Love


Формат: DVD5, DVD Video, MPEG2, AC3
Песня: X-Love
Жанр: Dance, Rap
Продолжительность: 00:57:17
Год выпуска: 1996

Видео: 720х576 (PAL 4:3), 25 fps, MPEG-2, ~6996 kbps avg, 0.675 bit/pixel
Аудио: 48 kHz, AC-3 , 2 ch, 448.00 kbps avg

Доп. информация: Богдан Петрович Титомир (слухи о том, что настоящее имя певца — Олег Титоренко, не соответствуют действительности; 16 марта 1967, Одесса) — российский эстрадный певец, рэпер, танцор, ди-джей, телеведущий.
Шоумен Богдан Титомир продюсировал таких звёзд, как Баста, Олег Груз, Тати, Umbella и группа «Мальчишник».
Титомир — автор крылатой фразы «Пипл хавает»


Треклист:
1. Сан-Мартино (в составе Кар-Мэн)
2. Лондон, гудбай (в составе Кар-Мэн)
3. Ерунда
4. Делай, как я
5. Чукча
6. Нет проблем (ремикс)
7. X-Love (Самая большая любовь)
8. Москва - клубная пора
9. Песня о шаре
10. Я приду
Между клипами комментарии Титомира


Общее
Полное имя: C:\Tfile\bogdan_titomir_x_love_[tfile.ru]\VTS_02_1.VOB
Формат: MPEG-PS
Размер файла: 1024 Мбайт
Продолжительность: 18 м.
Общий поток: 7595 Кбит/сек

Видео
Идентификатор: 224 (0xE0)
Формат: MPEG Video
Версия формата: Version 2
Профиль формата: Main@Main
Параметр BVOP формата: Да
Параметр матрицы формата: По умолчанию
Продолжительность: 18 м.
Вид битрейта: Переменный
Битрейт: 6996 Кбит/сек
Номинальный битрейт: 9800 Кбит/сек
Ширина: 720 пикс.
Высота: 576 пикс.
Соотношение сторон: 4:3
Частота кадров: 25,000 кадр/сек
Стандарт вещания: PAL
Цветовое пространство: YUV
Подвыборка цветности: 4:2:0
Битовая глубина: 8 бит
Тип развёртки: Чересстрочная
Порядок развёртки: Верхнее поле первое
Метод сжатия: С потерями
Бит/(Пиксели*Кадры): 0.675
Размер потока: 943 Мбайт (92%)

Аудио
Идентификатор: 128 (0x80)
Формат: AC-3
Формат/Информация: Audio Coding 3
Профиль формата: Dolby Digital
Расширение режима: CM (complete main)
Продолжительность: 18 м.
Вид битрейта: Постоянный
Битрейт: 448 Кбит/сек
Канал(ы): 2 канала(ов)
Расположение каналов: Front: L R
Частота: 48,0 КГц
Битовая глубина: 16 бит
Метод сжатия: С потерями
Размер потока: 60,4 Мбайт (6%)











Поделиться:




реклама партнёра


Вернуться к началу
 Профиль Отправить личное сообщение  
 
   Похожие торренты   Автор   Торрент   Размер 
В этой теме нет новых непрочитанных сообщений. Высокие ставки [Серия 1-24 из 24] (Богдан Дробязко) [Криминальный фильм, 2015] SATRip

Dracon

380 | 133

14.57 ГБ

В этой теме нет новых непрочитанных сообщений. Высокие ставки [S01] (Богдан Дробязко) [Драма, криминал, 2015] HDTV 1080i

Dracon

276 | 277

60.21 ГБ

В этой теме нет новых непрочитанных сообщений. Высокие ставки [S01] (Богдан Дробязко) [Драма, криминал, 2015] HDTV 720p

Dracon

465 | 485

37 ГБ

В этой теме нет новых непрочитанных сообщений. Сборник - I Love The 90s Vol.2 [Euro House, Euro Dance, 2017] MP3 / 320 kpbs

salma3

420 | 38

502.39 МБ

В этой теме нет новых непрочитанных сообщений. Сборник - I Love The 90s Vol.4 [Euro House, Euro Dance, 2017] MP3 / 320 kpbs

salma3

464 | 42

516.48 МБ

В этой теме нет новых непрочитанных сообщений. Сборник - I Love The 90s Vol.3 [Euro House, Euro Dance, 2017] MP3 / 320 kpbs

salma3

260 | 13

483.4 МБ

В этой теме нет новых непрочитанных сообщений. Сборник - Dance - Dance - Dance [2015, Dance, Club, MP3]

Nickolas3435

202 | 22

1.14 ГБ


Начать новую тему Ответить на тему  [ 1 сообщение ] 




Для Мосгорсуда, Роскомнадзора и рекламодателей:: mosgorsud-torrent[собачка]yandex.ru