Торрент файл
скачать торрент магнет ссылка Добавлен: 08 янв 2012, 03:46
Размер: 3.39 ГБ
Сидеров: 0
Личеров: 7
Автор

СообщениеДобавлено: 08 янв 2012, 03:46 

Не в сети
Супермодератор
Аватара пользователя
Дата регистрации:
22 май 2010, 11:03
Возраст: 37
Спасибо: 7939 / 13
Сообщения: 49828
Богдан Титомир - X-Love


Формат: DVD5, DVD Video, MPEG2, AC3
Песня: X-Love
Жанр: Dance, Rap
Продолжительность: 00:57:17
Год выпуска: 1996

Видео: 720х576 (PAL 4:3), 25 fps, MPEG-2, ~6996 kbps avg, 0.675 bit/pixel
Аудио: 48 kHz, AC-3 , 2 ch, 448.00 kbps avg

Доп. информация: Богдан Петрович Титомир (слухи о том, что настоящее имя певца — Олег Титоренко, не соответствуют действительности; 16 марта 1967, Одесса) — российский эстрадный певец, рэпер, танцор, ди-джей, телеведущий.
Шоумен Богдан Титомир продюсировал таких звёзд, как Баста, Олег Груз, Тати, Umbella и группа «Мальчишник».
Титомир — автор крылатой фразы «Пипл хавает»


Треклист:
1. Сан-Мартино (в составе Кар-Мэн)
2. Лондон, гудбай (в составе Кар-Мэн)
3. Ерунда
4. Делай, как я
5. Чукча
6. Нет проблем (ремикс)
7. X-Love (Самая большая любовь)
8. Москва - клубная пора
9. Песня о шаре
10. Я приду
Между клипами комментарии Титомира


Общее
Полное имя: C:\Tfile\bogdan_titomir_x_love_[tfile.ru]\VTS_02_1.VOB
Формат: MPEG-PS
Размер файла: 1024 Мбайт
Продолжительность: 18 м.
Общий поток: 7595 Кбит/сек

Видео
Идентификатор: 224 (0xE0)
Формат: MPEG Video
Версия формата: Version 2
Профиль формата: Main@Main
Параметр BVOP формата: Да
Параметр матрицы формата: По умолчанию
Продолжительность: 18 м.
Вид битрейта: Переменный
Битрейт: 6996 Кбит/сек
Номинальный битрейт: 9800 Кбит/сек
Ширина: 720 пикс.
Высота: 576 пикс.
Соотношение сторон: 4:3
Частота кадров: 25,000 кадр/сек
Стандарт вещания: PAL
Цветовое пространство: YUV
Подвыборка цветности: 4:2:0
Битовая глубина: 8 бит
Тип развёртки: Чересстрочная
Порядок развёртки: Верхнее поле первое
Метод сжатия: С потерями
Бит/(Пиксели*Кадры): 0.675
Размер потока: 943 Мбайт (92%)

Аудио
Идентификатор: 128 (0x80)
Формат: AC-3
Формат/Информация: Audio Coding 3
Профиль формата: Dolby Digital
Расширение режима: CM (complete main)
Продолжительность: 18 м.
Вид битрейта: Постоянный
Битрейт: 448 Кбит/сек
Канал(ы): 2 канала(ов)
Расположение каналов: Front: L R
Частота: 48,0 КГц
Битовая глубина: 16 бит
Метод сжатия: С потерями
Размер потока: 60,4 Мбайт (6%)











Поделиться:



Вернуться к началу
 Профиль Отправить личное сообщение  
 
   Похожие торренты   Автор   Торрент   Размер 
В этой теме нет новых непрочитанных сообщений. Последний танец / Last dance [Драма, триллер, 1996] BDRip 720p, Mvo

salma3

0 | 0

4.95 ГБ

В этой теме нет новых непрочитанных сообщений. Sinnamon Love (110) (Sinamon Love, Sinnamen, Sinamon, Sinemon Love, Sinnamon Love, Cinnamon Love, Sinnamone, Sinnamon, Cinnamon) MegaPack [1993-2014, Anal, Facial, A2M, DP, Ebony. Teen, MILF]

salma3

4 | 1

32.57 ГБ

В этой теме нет новых непрочитанных сообщений. Wicked - Веское доказательство / Hard Evidence (1996) DVD5

zorgi

1 | 1

4.26 ГБ

В этой теме нет новых непрочитанных сообщений. Melody Love (50) (Melody, Melodie Love, Melanie) Pack [1998-2007, Anal, Facial, Pee, GS, Teen]

salma3

1 | 2

9.27 ГБ

В этой теме нет новых непрочитанных сообщений. [IHaveAWife.com / NaughtyAmerica.com] April Love - April Love want's her plastic surgeon to fuck her real good and hard! (05.02.2022) [All Sex]

zorgi

0 | 0

335.38 МБ

В этой теме нет новых непрочитанных сообщений. Avi Love - From Dressed to Naked Barefoot Avi Love 4on1 DAP, TP, Big Gapes, Messy Cumshot GIO827 (2018) WEB-DL 720p

zorgi

19 | 1

1.66 ГБ

В этой теме нет новых непрочитанных сообщений. Avi Love - From Dressed to Naked Barefoot Avi Love 4on1 DAP, TP, Big Gapes, Messy Cumshot GIO827 (2018) WEB-DLRip

zorgi

8 | 8

823.35 МБ


Начать новую тему Ответить на тему  [ 1 сообщение ] 




Для Мосгорсуда, Роскомнадзора и рекламодателей:: rstracker[собака]yandex.ru
cron