Торрент файл
скачать торрент магнет ссылка Добавлен: 08 янв 2012, 03:44
Размер: 4.26 ГБ
Сидеров: 22
Личеров: 10
Автор

СообщениеДобавлено: 08 янв 2012, 03:44 

Не в сети
Супермодератор
Аватара пользователя
Дата регистрации:
22 май 2010, 11:03
Возраст: 37
Спасибо: 7939 / 13
Сообщения: 49828
VA - Дискотека 80-х. Песни моей мамы Vol. 5


Формат: DVD5, DVD Video, MPEG2, AC3
Песня: Дискотека 80-х. Песни моей мамы Vol. 5
Жанр: Disco, Pop
Продолжительность: 01:56:56
Год выпуска: 1977-1996

Видео: 720х576 (PAL 4:3), 25 fps, MPEG-2, ~4464 kbps avg, 0.404 bit/pixel
Аудио: 48 kHz, AC-3 , 2 ch, 192.00 kbps avg

Доп. информация: В пятом альбоме продолжение подборки песен, которые помогут создать картину событий прошлого и вспомнить - как наши мамы проводили свой досуг на дискотеке 80-х в великой стране которой больше нет - в СССР.
01 Ю. Антонов - От печали до радости(1987)
02 Интеграл - Привет (1986)
03 А. Апина - Ксюша (1991)
04 Машина времени - Марионетки (1977)
05 Сталкер и А. Державин - Песня о первой и чистой любви (1994)
06 Константин Пахомов - Птицы (1989)
07 С. Минаев - Братец Луи (1987)
08 В. Легкоступова - Ягода-малина (1987)
09 Каролина - Мама, всё о'кей (1996)
10 Миражи Н. Ветлицкая - Поппури (1988)
11 В. Цой - Пачка сигарет (1988)
12 А. Варум - Ля-Ля-Фа (1993)
13 Здравствуй, песня - Большая медведица (1984)
14 Сладкий сон и С. Васюта - Черная гроза (1993)
15 П. Смеян - Романс морских офицеров (1981)
16 Альянс - На заре (1987)
17 Наутилус Помпилиус - Казанова (1987)
18 Аквариум - Город золотой (к-ф АССА) (1987)
19 Ю. Лоза - Сто часов (1986)
20 А. Пугачева - Миллион алых роз (1985)
21 Владимир Кузьмин - Моя любовь (1988)
22 Секрет - Она не понимает (1987)
23 Фристайл - Ах, какая женщина (1996)
24 А. Кальянов - Старое кафе (1988)
25 Е. Белоусов - Облако волос (1992)
26 В. Леонтьев - Кто виноват (1981)
27 И. Корнелюк - Мало ли (1989)
28 М. Боярский - Любовь к тебе придёт (197
29 О. Зарубина-На теплоходе музыка играет (1987)
30 Ж. Агузарова и Браво - В городе моём (1988)

Общее
Полное имя: C:\Tfile\pesni_moej_mamy_vol5_[tfile.ru]\VIDEO_TS\VTS_01_1.VOB
Формат: MPEG-PS
Размер файла: 1024 Мбайт
Продолжительность: 32 м.
Общий поток: 4464 Кбит/сек

Видео
Идентификатор: 224 (0xE0)
Формат: MPEG Video
Версия формата: Version 2
Профиль формата: Main@Main
Параметр BVOP формата: Да
Параметр матрицы формата: По умолчанию
Параметры GOP формата: M=3, N=15
Продолжительность: 32 м.
Вид битрейта: Переменный
Битрейт: 4184 Кбит/сек
Номинальный битрейт: 9008 Кбит/сек
Ширина: 720 пикс.
Высота: 576 пикс.
Соотношение сторон: 4:3
Частота кадров: 25,000 кадр/сек
Стандарт вещания: PAL
Цветовое пространство: YUV
Подвыборка цветности: 4:2:0
Битовая глубина: 8 бит
Тип развёртки: Прогрессивная
Метод сжатия: С потерями
Бит/(Пиксели*Кадры): 0.404
Размер потока: 959 Мбайт (94%)

Аудио
Идентификатор: 128 (0x80)
Формат: AC-3
Формат/Информация: Audio Coding 3
Расширение режима: CM (complete main)
Продолжительность: 32 м.
Вид битрейта: Постоянный
Битрейт: 192 Кбит/сек
Канал(ы): 2 канала(ов)
Расположение каналов: Front: L R
Частота: 48,0 КГц
Битовая глубина: 16 бит
Метод сжатия: С потерями
Размер потока: 44,0 Мбайт (4%)












Поделиться:



Вернуться к началу
 Профиль Отправить личное сообщение  
 
   Похожие торренты   Автор   Торрент   Размер 
В этой теме нет новых непрочитанных сообщений. Маленькие девочки в голубом / Little Girls Blue Vol.1 (1977) DVDRip

zorgi

0 | 1

1.17 ГБ

В этой теме нет новых непрочитанных сообщений. Распутное детство / Maladolescenza (Пьер Джузеппе Мурджа) [1977 г., эротика, драма, DVD5] Avo

zorgi

1 | 0

4.31 ГБ

В этой теме нет новых непрочитанных сообщений. Wicked - Веское доказательство / Hard Evidence (1996) DVD5

zorgi

1 | 1

4.26 ГБ

В этой теме нет новых непрочитанных сообщений. В моей заднице! / Porn Fidelity's Up My Ass! (2017) WEB-DL

zorgi

56 | 22

3.17 ГБ

В этой теме нет новых непрочитанных сообщений. Не говорите об этом моей дочери / Ne Le Dites Pas A Ma Fille (2007) DVDRip

zorgi

17 | 4

699.3 МБ

В этой теме нет новых непрочитанных сообщений. Дуплет для моей жены со мной 4 / DP My Wife With Me 4 (2014) WEB-DL 1080p

zorgi

42 | 15

5.85 ГБ

В этой теме нет новых непрочитанных сообщений. Chanel Preston - Дуплет для моей жены со мной / DP My Wife With Me (2013) SiteRip

zorgi

16 | 22

460.25 МБ


Начать новую тему Ответить на тему  [ 1 сообщение ] 




Для Мосгорсуда, Роскомнадзора и рекламодателей:: rstracker[собака]yandex.ru
cron